Скачать порно через торрент Garden Garden The Animation UnionPeer.org бесплатно онлайн HD качество

Скачать новое порно 2015, 2014 новинки через торрент UnionPeer.org

Порно торрент бесплатно ЮнионПир.орг

Если у вас наблюдаются проблемы со скриншотами, переходом по ссылками, скачиванием торрентов - проблемы в блокировщике рекламы AdBlock. #хорошегоДня!


Статистика раздачи
Размер:  3.32 GB   |    Зарегистрирован:  4 года   |    .torrent скачан:  401 раз   |   
Раздают:  1  
   
Загрузка...
 
Автор Сообщение

damien1990


Garden / Garden The Animation / ガーデン / ガーデン The Animation / Запретные игры

Год производства: 2013 г.
Жанр: X-Ray, Oral sex, Rape
Серии: ep. 1 of 2
Продолжительность: ~ 30 min
Цензура: Есть

Озвучка: Оригинальная (Японский)
Режиссер: Tatsumi
Автор оригинала: Midori no Ruupe
Студия: Pink Pineapple

Описание RUS: Молодая девушка заходит в виртуальную игру для взрослых, проведя не много времени и занимаясь флиртом с игроками её это очень сильно возбуждает и затягивает. На днях участникам игры предлагают встретиться и воплотить флирт в жизнь, кроме нашей героини так не кто не приходит. Собираясь уходить она встречает мужчину, на вид лет 25-30 который оказывается её другом из этой игры. Он предлагает ей забыть про виртуальные потехи и окунуться в реальные ощущения. Девушка соглашается и уже через пару минут все её развратные мысли принимают новый оборот. Её младшая сестрёнка замечает что сестрёнка чем-то не хорошим и постоянно куда-то пропадает, решив проследить за ней она втягивает себя в эту игру. О чём потом сильно жалеет, но возможно она во время одумается и уйдёт с этого пути разврата.

Описание ENG: A young girl walks into a virtual game for adults, not spending a lot of time and doing flirt with the players it is very exciting and addictive. The other day the participants of the game offer to meet and flirt bring to life, but our heroine so who does not come. Up to leave, she meets a man, who looked about 25-30 which is her friend out of this game. He invites her to forget about the virtual fun and experience the real thrill. The girl agrees and after a couple of minutes all of her naughty thoughts take a new turn. Her little sister, little sister notices that something is not good and constantly disappear somewhere and decided to follow her she draws herself in this game. What then strongly regrets, but maybe she changed his mind at the time and go from the path of debauchery.

Доп. информация: Адаптация хентай манги

Качество видео: DVD5
Формат видео: DVD Video
Видео кодек: MPEG2
Аудио кодек: AC3
Видео: 720х480, (16:9), 29,970 кадров/сек, 8568 Кбит/сек, NTSC
Аудио: JAP, AC-3, 2 канала, 192 Кбит/сек, 48,0 КГц
Общее
Полное имя : J:\VIDEO_TS\VTS_01_1.VOB
Формат : MPEG-PS
Размер файла : 1024 Мбайт
Продолжительность : 16 м.
Режим общего битрейта : Переменный
Общий поток : 8938 Кбит/сек

Видео
Идентификатор : 224 (0xE0)
Формат : MPEG Video
Версия формата : Version 2
Профиль формата : Main@Main
Параметр BVOP формата : Да
Параметр матрицы формата : Выборочная
Параметр GOP формата : Variable
Продолжительность : 16 м.
Вид битрейта : Переменный
Битрейт : 8568 Кбит/сек
Максимальный битрейт : 9800 Кбит/сек
Ширина : 720 пикселей
Высота : 480 пикселей
Соотношение сторон : 16:9
Частота кадров : 29,970 кадров/сек
Стандарт вещания : NTSC
Цветовое пространство : YUV
Субдискретизация насыщенности : 4:2:0
Битовая глубина : 8 бит
Тип развёртки : Чересстрочная
Порядок развёртки : Верхнее поле первое
Метод сжатия : С потерями
Бит/(Пиксели*Кадры) : 0.827
Временной код первого кадра : 01:00:10:00
Оригинал временного кода : Group of pictures header
Размер потока : 981 Мбайт (96%)

Аудио
Идентификатор : 189 (0xBD)-128 (0x80)
Формат : AC-3
Формат/Информация : Audio Coding 3
Расширение режима : CM (complete main)
Параметр Endianness формата : Big
Режим смешивания : DVD-Video
Продолжительность : 16 м.
Вид битрейта : Постоянный
Битрейт : 192 Кбит/сек
Каналы : 2 канала
Расположение каналов : Front: L R
Частота : 48,0 КГц
Битовая глубина : 16 бит
Метод сжатия : С потерями
Размер потока : 22,0 Мбайт (2%)

Меню
Время раздачи: с 09 до 23, отдача: 100 кб/с

Трекер:  [ 28-Июл-2013 16:33 ]

  

Скачать .torrent

Размер .torrent файла 17 KB


Размер: 3.32 GB
Хэш (hash) релиза: 495b0acecc48facf604de049d1c4717ae8ef8c0c

Еще никто не оставлял запись к записи скачать торрент Garden Garden The Animation . Будь первым!

!Обратная связь