Скачать через торрент музыку Alpha Blondy - Mystic Power - Musique Acoustic от 27.04.2013 - TV5MONDE бесплатно без регистрации torrent

Если у вас наблюдаются проблемы со скриншотами, переходом по ссылками, скачиванием торрентов - проблемы в блокировщике рекламы AdBlock. #хорошегоДня!


Статистика раздачи
Размер:  745 MB   |    Зарегистрирован:  3 года 10 месяцев   |    .torrent скачан:  44 раза   |   
Раздают:  1  
   
Загрузка...
 
Автор Сообщение

Polarnik

avatar Polarnik


Alpha Blondy - Mystic Power
Musique Acoustic от 27.04.2013 - TV5MONDE
Страна: Франция
Жанр: Reggae, Afro-reggae, Live
Продолжительность: 00:26:41
Год выпуска: 2013 г.

Режиссер: Филипп Сомме / Philippe Sommet
Описание: Музыкальная передача Musique Acoustic канала французского телевидения TV5MONDE представляет преимущественно французских же талантливых молодых исполнителей, чье живое выступление в студии без зрителей может состоять из одной или нескольких песен, иногда передача бывает полностью посвящена одному исполнителю, презентующему новый альбом. Musique Acoustic выходит в эфир раз в 1-2 недели. Ведущим передачи c 2006 года является ее создатель - популярный радио – и телеведущий - Sébastien Folin, получивший известность в 2005 году серией из 20 коротких программ для TF1 "Любовь в 20 лет".

Сегодня в программе ивуарийский певец и композитор музыки регги Alpha Blondy представит свой последний альбом Mystic Power (2013). Сочиняет и исполняет песни на французском и английском языках, а также, на понятном только ему, африканском наречии диула. На сегодняшний день Альфа Блонди наверное, самый известный африканский музыкант. Его песни покорили сердца миллионов слушателей по всему миру своим необычайным мелодизмом и неподдельной искренностью исполнения. Многие критики считают его основателем уникального стиля — afro-reggae, сочетающего в себе элементы ямайского регги с традиционными африканскими ритмами.

Треклист:
01. Hope
02. Soutra
03. Crime spirituel
04. American Dream
Передачи Musique Acoustic
Источник: Собственная запись со спутника (канал TV5MONDE).

Качество: DVB
Контейнер: MPEG-PS [/b][/url]
Видео кодек: MPEG2
Аудио кодек: MP2
Видео: MPEG Video 2, 720x576@1024x576 (16:9), 25 fps, ~3631 kbps avg, ~0.350 bit/pixel
Аудио: 48 kHz, MPEG Audio 2, 2 ch, ~192.00 kbps avg
Полное имя : H:\My Torrents\[apreder]TV5MONDE_Musique_Acoustic\[apreder]TV5MONDE_Musique_Aqoustic(27.04.2013)DVB.mpgФормат : MPEG-PSРазмер файла : 745 МбайтПродолжительность : 26 м.Режим общего битрейта : ПеременныйОбщий поток : 3900 Кбит/сек

ВидеоИдентификатор : 224 (0xE0)Формат : MPEG VideoВерсия формата : Version 2Профиль формата : Main@MainПараметр BVOP формата : ДаПараметр матрицы формата : ВыборочнаяПараметр GOP формата : M=3, N=24Продолжительность : 26 м.Вид битрейта : ПеременныйБитрейт : 3631 Кбит/секШирина : 720 пикселейВысота : 576 пикселейСоотношение сторон : 16:9Частота кадров : 25,000 кадров/секСтандарт вещания : PALЦветовое пространство : YUVСубдискретизация насыщенности : 4:2:0Битовая глубина : 8 битМетод сжатия : С потерямиБит/(Пиксели*Кадры) : 0.350TimeCode_FirstFrame : 00:00:00:00TimeCode_Source : Group of pictures headerРазмер потока : 694 Мбайт (93%)

АудиоИдентификатор : 192 (0xC0)Формат : MPEG AudioВерсия формата : Version 1Профиль формата : Layer 2Продолжительность : 26 м.Вид битрейта : ПостоянныйБитрейт : 192 Кбит/секКаналы : 2 каналаЧастота : 48,0 КГцМетод сжатия : С потерямиРазмер потока : 36,7 Мбайт (5%)

711/693√

Трекер:  [ 25-Сен-2013 08:21 ]

  

Скачать .torrent

Размер .torrent файла 15 KB


Размер: 745 MB
Хэш (hash) релиза: 2ad17f05684a67d4be34147e3b0de84a0e0cff8b

Еще никто не оставлял запись к записи скачать торрент Alpha Blondy - Mystic Power - Musique Acoustic от 27.04.2013 - TV5MONDE . Будь первым!

!Обратная связь