Скачать через торрент музыку Незнакомец Never Talk to Strangers бесплатно без регистрации torrent

Если у вас наблюдаются проблемы со скриншотами, переходом по ссылками, скачиванием торрентов - проблемы в блокировщике рекламы AdBlock. #хорошегоДня!


Статистика раздачи
Размер:  271 MB   |    Зарегистрирован:  3 года 11 месяцев   |    .torrent скачан:  21 раз   |   
Раздают:  1  
   
Загрузка...
 
Автор Сообщение

Polarnik

avatar Polarnik


Незнакомец / Never Talk to Strangers

Жанр: Soundtrack
Композитор: Pino Donaggio
Год выпуска диска: 1995
Год выпуска фильма: 1995
Страна-производитель диска: Scotti Bros.
Издатель (лейбл): 72392 75495-2
Номер по каталогу: США
Аудиокодек: FLAC (*.flac)
Тип рипа: tracks+.cue
Битрейт аудио: lossless
Продолжительность: 46:38
Наличие сканов в содержимом раздачи: нет

Треклист:
01. Sarah''s Theme (Opening Theme)
02. Her Body Makes Vows
Performed by Exchange
03. Lovesick
Performed by Alfonzo Blackwell
04. A Girl Like You
Performed by Edwyn Collins
05. Come and Get It
Performed by China
06. Sexual Healing
Performed by The Nylons
07. Paranoia
Performed by The Barstool Prophets
08. A Mover La Colita
Performed by Artie the 1 Man Party
09. Snow Dance
10. At Last
Performed by Tina Moore
11. I Should Feel Empty
Performed by Gwen Swick
12. Never Talk (Closing Theme)
Exact Audio Copy V1.0 beta 3 from 29. August 2011

EAC extraction logfile from 6. March 2013, 10:11

Pino Donaggio & VA / Never Talk To Strangers

Used drive : Optiarc DVD RW AD-7173A Adapter: 2 ID: 0

Read mode : SecureUtilize accurate stream : YesDefeat audio cache : YesMake use of C2 pointers : No

Read offset correction : 48Overread into Lead-In and Lead-Out : NoFill up missing offset samples with silence : YesDelete leading and trailing silent blocks : NoNull samples used in CRC calculations : YesUsed interface : Native Win32 interface for Win NT & 2000Gap handling : Appended to previous track

Used output format : User Defined EncoderSelected bitrate : 128 kBit/sQuality : HighAdd ID3 tag : NoCommand line compressor : I:\Program Files\Exact Audio Copy v1beta3\Flac\flac.exeAdditional command line options : -V -8 -T "Genre=%genre%" -T "Artist=%artist%" -T "Title=%title%" -T "Album=%albumtitle%" -T "Date=%year%" -T "Tracknumber=%tracknr%" -T "Comment=%comment%" %source%

TOC of the extracted CD

Track | Start | Length | Start sector | End sector --------------------------------------------------------- 1 | 0:00.00 | 4:01.42 | 0 | 18116 2 | 4:01.42 | 4:20.25 | 18117 | 37641 3 | 8:21.67 | 3:37.65 | 37642 | 53981 4 | 11:59.57 | 4:00.10 | 53982 | 71991 5 | 15:59.67 | 3:42.38 | 71992 | 88679 6 | 19:42.30 | 4:51.55 | 88680 | 110559 7 | 24:34.10 | 3:37.40 | 110560 | 126874 8 | 28:11.50 | 3:09.67 | 126875 | 141116 9 | 31:21.42 | 2:29.73 | 141117 | 152364 10 | 33:51.40 | 3:07.72 | 152365 | 166461 11 | 36:59.37 | 5:10.60 | 166462 | 189771 12 | 42:10.22 | 4:36.58 | 189772 | 210529

Track 1

Filename I:\Program Files\Exact Audio Copy v1beta3\Atrox777 CD rips\Pino Donaggio & VA - Never Talk To Strangers (1995) [FLAC]\01. Pino Donaggio - Sarah''s Theme (Opening Theme).wav

Pre-gap length 0:00:02.00

Peak level 80.5 % Extraction speed 1.1 X Track quality 100.0 % Test CRC 549D432C Copy CRC 549D432C Track not present in AccurateRip database Copy OK

Track 2

Filename I:\Program Files\Exact Audio Copy v1beta3\Atrox777 CD rips\Pino Donaggio & VA - Never Talk To Strangers (1995) [FLAC]\02. Exchange - Her Body Makes Vows.wav

Pre-gap length 0:00:02.20

Peak level 86.7 % Extraction speed 1.3 X Track quality 100.0 % Test CRC 1D5598BE Copy CRC 1D5598BE Track not present in AccurateRip database Copy OK

Track 3

Filename I:\Program Files\Exact Audio Copy v1beta3\Atrox777 CD rips\Pino Donaggio & VA - Never Talk To Strangers (1995) [FLAC]\03. Alfonzo Blackwell - Lovesick.wav

Pre-gap length 0:00:01.53

Peak level 67.9 % Extraction speed 1.3 X Track quality 100.0 % Test CRC F4B2B20D Copy CRC F4B2B20D Track not present in AccurateRip database Copy OK

Track 4

Filename I:\Program Files\Exact Audio Copy v1beta3\Atrox777 CD rips\Pino Donaggio & VA - Never Talk To Strangers (1995) [FLAC]\04. Edwyn Collins - A Girl Like You.wav

Pre-gap length 0:00:01.72

Peak level 62.0 % Extraction speed 1.4 X Track quality 100.0 % Test CRC 4C35239D Copy CRC 4C35239D Track not present in AccurateRip database Copy OK

Track 5

Filename I:\Program Files\Exact Audio Copy v1beta3\Atrox777 CD rips\Pino Donaggio & VA - Never Talk To Strangers (1995) [FLAC]\05. China - Come and Get It.wav

Pre-gap length 0:00:02.65

Peak level 67.1 % Extraction speed 1.3 X Track quality 99.9 % Test CRC D9DC2614 Copy CRC D9DC2614 Track not present in AccurateRip database Copy OK

Track 6

Filename I:\Program Files\Exact Audio Copy v1beta3\Atrox777 CD rips\Pino Donaggio & VA - Never Talk To Strangers (1995) [FLAC]\06. The Nylons - Sexual Healing.wav

Pre-gap length 0:00:02.05

Peak level 85.3 % Extraction speed 1.3 X Track quality 99.9 % Test CRC 35D354A1 Copy CRC 35D354A1 Track not present in AccurateRip database Copy OK

Track 7

Filename I:\Program Files\Exact Audio Copy v1beta3\Atrox777 CD rips\Pino Donaggio & VA - Never Talk To Strangers (1995) [FLAC]\07. The Barstool Prophets - Paranoia.wav

Pre-gap length 0:00:02.20

Peak level 66.9 % Extraction speed 1.6 X Track quality 100.0 % Test CRC 4CD82905 Copy CRC 4CD82905 Track not present in AccurateRip database Copy OK

Track 8

Filename I:\Program Files\Exact Audio Copy v1beta3\Atrox777 CD rips\Pino Donaggio & VA - Never Talk To Strangers (1995) [FLAC]\08. Artie the 1 Man Party - A Mover La Colita.wav

Pre-gap length 0:00:02.31

Peak level 100.0 % Extraction speed 1.4 X Track quality 99.9 % Test CRC 131A80ED Copy CRC 131A80ED Track not present in AccurateRip database Copy OK

Track 9

Filename I:\Program Files\Exact Audio Copy v1beta3\Atrox777 CD rips\Pino Donaggio & VA - Never Talk To Strangers (1995) [FLAC]\09. Pino Donaggio - Snow Dance.wav

Pre-gap length 0:00:03.20

Peak level 77.9 % Extraction speed 1.5 X Track quality 100.0 % Test CRC 8F0317E3 Copy CRC 8F0317E3 Track not present in AccurateRip database Copy OK

Track 10

Filename I:\Program Files\Exact Audio Copy v1beta3\Atrox777 CD rips\Pino Donaggio & VA - Never Talk To Strangers (1995) [FLAC]\10. Tina Moore - At Last.wav

Pre-gap length 0:00:02.41

Peak level 78.5 % Extraction speed 1.4 X Track quality 99.9 % Test CRC C1821C72 Copy CRC C1821C72 Track not present in AccurateRip database Copy OK

Track 11

Filename I:\Program Files\Exact Audio Copy v1beta3\Atrox777 CD rips\Pino Donaggio & VA - Never Talk To Strangers (1995) [FLAC]\11. Gwen Swick - I Should Feel Empty.wav

Pre-gap length 0:00:02.35

Peak level 75.6 % Extraction speed 1.8 X Track quality 100.0 % Test CRC 2D375C90 Copy CRC 2D375C90 Track not present in AccurateRip database Copy OK

Track 12

Filename I:\Program Files\Exact Audio Copy v1beta3\Atrox777 CD rips\Pino Donaggio & VA - Never Talk To Strangers (1995) [FLAC]\12. Pino Donaggio - Never Talk (Closing Theme).wav

Pre-gap length 0:00:03.22

Peak level 97.3 % Extraction speed 1.0 X Track quality 99.8 % Test CRC E84C91F7 Copy CRC E84C91F7 Track not present in AccurateRip database Copy OK

None of the tracks are present in the AccurateRip database

No errors occurred

End of status report

==== Log checksum 44947980E4620C817E5D0FEBE2D5283128D109944D1C67AB77CBB3FD5ABCF118 ====
REM GENRE SoundtrackREM DATE 1995REM DISCID 8F0AF70CREM COMMENT "ExactAudioCopy v1.0b3"PERFORMER "Pino Donaggio & VA"TITLE "Never Talk To Strangers"FILE "01. Pino Donaggio - Sarah''s Theme (Opening Theme).wav" WAVE TRACK 01 AUDIO TITLE "Sarah''s Theme (Opening Theme) " PERFORMER "Pino Donaggio" INDEX 01 00:00:00 TRACK 02 AUDIO TITLE "Her Body Makes Vows" PERFORMER "Exchange" INDEX 00 03:59:22FILE "02. Exchange - Her Body Makes Vows.wav" WAVE INDEX 01 00:00:00 TRACK 03 AUDIO TITLE "Lovesick" PERFORMER "Alfonzo Blackwell" INDEX 00 04:18:47FILE "03. Alfonzo Blackwell - Lovesick.wav" WAVE INDEX 01 00:00:00 TRACK 04 AUDIO TITLE "A Girl Like You" PERFORMER "Edwyn Collins" INDEX 00 03:35:68FILE "04. Edwyn Collins - A Girl Like You.wav" WAVE INDEX 01 00:00:00 TRACK 05 AUDIO TITLE "Come and Get It " PERFORMER "China" INDEX 00 03:57:20FILE "05. China - Come and Get It.wav" WAVE INDEX 01 00:00:00 TRACK 06 AUDIO TITLE "Sexual Healing" PERFORMER "The Nylons" INDEX 00 03:40:33FILE "06. The Nylons - Sexual Healing.wav" WAVE INDEX 01 00:00:00 TRACK 07 AUDIO TITLE "Paranoia" PERFORMER "The Barstool Prophets" INDEX 00 04:49:35FILE "07. The Barstool Prophets - Paranoia.wav" WAVE INDEX 01 00:00:00 TRACK 08 AUDIO TITLE "A Mover La Colita" PERFORMER "Artie the 1 Man Party" INDEX 00 03:35:09FILE "08. Artie the 1 Man Party - A Mover La Colita.wav" WAVE INDEX 01 00:00:00 TRACK 09 AUDIO TITLE "Snow Dance" PERFORMER "Pino Donaggio" INDEX 00 03:06:47FILE "09. Pino Donaggio - Snow Dance.wav" WAVE INDEX 01 00:00:00 TRACK 10 AUDIO TITLE "At Last" PERFORMER "Tina Moore" INDEX 00 02:27:32FILE "10. Tina Moore - At Last.wav" WAVE INDEX 01 00:00:00 TRACK 11 AUDIO TITLE "I Should Feel Empty " PERFORMER "Gwen Swick" INDEX 00 03:05:37FILE "11. Gwen Swick - I Should Feel Empty.wav" WAVE INDEX 01 00:00:00 TRACK 12 AUDIO TITLE "Never Talk (Closing Theme) " PERFORMER "Pino Donaggio" INDEX 00 05:07:38FILE "12. Pino Donaggio - Never Talk (Closing Theme).wav" WAVE INDEX 01 00:00:00
Started at: суббота, 27. 07. 2013. - 10:08.28

12 files found

01 -===- C:\!_TORRENT\Pino Donaggio & VA - Never Talk To Strangers (1995) [FLAC]\01. Pino Donaggio - Sarah''s Theme (Opening Theme).flac Extracted successfully Conclusion: This track looks like CDDA with probability 100% Tempfile successfully deleted.

02 -===- C:\!_TORRENT\Pino Donaggio & VA - Never Talk To Strangers (1995) [FLAC]\02. Exchange - Her Body Makes Vows.flac Extracted successfully Conclusion: This track looks like CDDA with probability 94% Tempfile successfully deleted.

03 -===- C:\!_TORRENT\Pino Donaggio & VA - Never Talk To Strangers (1995) [FLAC]\03. Alfonzo Blackwell - Lovesick.flac Extracted successfully Conclusion: This track looks like CDDA with probability 99% Tempfile successfully deleted.

04 -===- C:\!_TORRENT\Pino Donaggio & VA - Never Talk To Strangers (1995) [FLAC]\04. Edwyn Collins - A Girl Like You.flac Extracted successfully Conclusion: This track looks like CDDA with probability 100% Tempfile successfully deleted.

05 -===- C:\!_TORRENT\Pino Donaggio & VA - Never Talk To Strangers (1995) [FLAC]\05. China - Come and Get It.flac Extracted successfully Conclusion: This track looks like CDDA with probability 100% Tempfile successfully deleted.

06 -===- C:\!_TORRENT\Pino Donaggio & VA - Never Talk To Strangers (1995) [FLAC]\06. The Nylons - Sexual Healing.flac Extracted successfully Conclusion: This track looks like CDDA with probability 100% Tempfile successfully deleted.

07 -===- C:\!_TORRENT\Pino Donaggio & VA - Never Talk To Strangers (1995) [FLAC]\07. The Barstool Prophets - Paranoia.flac Extracted successfully Conclusion: This track looks like CDDA with probability 100% Tempfile successfully deleted.

08 -===- C:\!_TORRENT\Pino Donaggio & VA - Never Talk To Strangers (1995) [FLAC]\08. Artie the 1 Man Party - A Mover La Colita.flac Extracted successfully Conclusion: This track looks like CDDA with probability 99% Tempfile successfully deleted.

09 -===- C:\!_TORRENT\Pino Donaggio & VA - Never Talk To Strangers (1995) [FLAC]\09. Pino Donaggio - Snow Dance.flac Extracted successfully Conclusion: This track looks like CDDA with probability 100% Tempfile successfully deleted.

10 -===- C:\!_TORRENT\Pino Donaggio & VA - Never Talk To Strangers (1995) [FLAC]\10. Tina Moore - At Last.flac Extracted successfully Conclusion: This track looks like CDDA with probability 100% Tempfile successfully deleted.

11 -===- C:\!_TORRENT\Pino Donaggio & VA - Never Talk To Strangers (1995) [FLAC]\11. Gwen Swick - I Should Feel Empty.flac Extracted successfully Conclusion: This track looks like CDDA with probability 100% Tempfile successfully deleted.

12 -===- C:\!_TORRENT\Pino Donaggio & VA - Never Talk To Strangers (1995) [FLAC]\12. Pino Donaggio - Never Talk (Closing Theme).flac Extracted successfully Conclusion: This track looks like CDDA with probability 100% Tempfile successfully deleted.

Finished at: суббота, 27. 07. 2013. - 10:13.10 (operation time: 0:04.42)


Трекер:  [ 25-Сен-2013 08:42 ]

  

Скачать .torrent

Размер .torrent файла 12 KB


Размер: 271 MB
Хэш (hash) релиза: d79b1fbe8d6b9c68115f6ccc9b8aab914784266a

Торренты, похожие на Незнакомец Never Talk to Strangers скачать торрент

Форум Название Автор Размер S L Добавлен
Саундтреки к фильмам и мультфильмам (mp3) ·· (Score/Soundtrack) Незнакомец / Never Talk to Strangers (by Pino Donaggio & VA) - 1995, MP3, 320 kbps Galfimbul 112343418107 MB 0 0 1374914027

11:33

27-Июл-13

Еще никто не оставлял запись к записи скачать торрент Незнакомец Never Talk to Strangers . Будь первым!

!Обратная связь