Скачать через торрент музыку Отвязные каникулы Spring Breakers бесплатно без регистрации torrent

Если у вас наблюдаются проблемы со скриншотами, переходом по ссылками, скачиванием торрентов - проблемы в блокировщике рекламы AdBlock. #хорошегоДня!


Статистика раздачи
Размер:  396 MB   |    Зарегистрирован:  4 года   |    .torrent скачан:  46 раз   |   
Раздают:  1  
   
Загрузка...
 
Автор Сообщение

Polarnik

avatar Polarnik


Отвязные каникулы / Spring Breakers
Название альбома: Spring Breakers (Music From The Motion Picture)
Жанр: Soundtrack
Композитор: Skrillex, Cliff Martinez
Год выпуска диска: 2013
Год выпуска фильма: 2012
Страна-производитель диска: Europe
Издатель (лейбл): Big Beat / Atlantic
Номер по каталогу: 7567-87317-8
Аудиокодек: FLAC (*.flac)
Тип рипа: tracks+.cue
Битрейт аудио: lossless
Продолжительность: 01:10:20
Источник: WrzMusic
Наличие сканов в содержимом раздачи: да
Треклист:01 – Skrillex – Scary Monsters and Nice Sprites
02 – Cliff Martinez & Skrillex – Rise and Shine Little B***h
03 – Cliff Martinez – Pretend It’s a Video Game
04 – Skrillex – With You, Friends (Long Drive)
05 – DangeRuss & James Franco – Hangin’ With Da Dopeboys
06 – Cliff Martinez & Skrillex – Bikinis & Big Booties Y’all
07 – Cliff Martinez – Never Gonna Get This P***y
08 – Birdy Nam Nam – Goin’ In (Skrillex Goin’ Down Mix)
09 – Waka Flocka Flame – F**k This Industry
10 – Skrillex – Smell This Money (Original Mix)
11 – Skrillex – Park Smoke
12 – Gucci Mane feat. Waka Flocka Flame – Young N****s
13 – Cliff Martinez – Your Friends Ain’t Gonna Leave With You
14 – Skrillex – Ride Home
15 – Meek Mill, Pill, Torch & Rick Ross feat. French Montana – Big Bank
16 – Cliff Martinez & Skrillex – Son of Scary Monsters
17 – Cliff Martinez – Big ‘Ol Scardy Pants
18 – Skrillex – Scary Monsters On Strings
19 – Ellie Goulding – Lights
Exact Audio Copy V1.0 beta 3 from 29. August 2011

EAC extraction logfile from 27. June 2013, 3:03

Various Artists / Spring Breakers

Used drive : HL-DT-STDVD+-RW GA31N Adapter: 0 ID: 1

Read mode : SecureUtilize accurate stream : YesDefeat audio cache : YesMake use of C2 pointers : No

Read offset correction : 103Overread into Lead-In and Lead-Out : NoFill up missing offset samples with silence : YesDelete leading and trailing silent blocks : NoNull samples used in CRC calculations : YesUsed interface : Native Win32 interface for Win NT & 2000Gap handling : Appended to previous track

Used output format : User Defined EncoderSelected bitrate : 1024 kBit/sQuality : HighAdd ID3 tag : NoCommand line compressor : C:\Program Files (x86)\Exact Audio Copy\Flac\flac.exeAdditional command line options : -8 -V -T "ARTIST=%artist%" -T "TITLE=%title%" -T "ALBUM=%albumtitle%" -T "DATE=%year%" -T "TRACKNUMBER=%tracknr%" -T "GENRE=%genre%" -T "PERFORMER=%albuminterpret%" -T "COMPOSER=%composer%" %haslyrics%--tag-from-file=LYRICS="%lyricsfile%"%haslyrics% -T "ALBUMARTIST=%albumartist%" -T "DISCNUMBER=%cdnumber%" -T "TOTALDISCS=%totalcds%" -T "TOTALTRACKS=%numtracks%" -T "COMMENT=%comment%" %source% -o %dest%

TOC of the extracted CD

Track | Start | Length | Start sector | End sector --------------------------------------------------------- 1 | 0:00.00 | 4:04.50 | 0 | 18349 2 | 4:04.50 | 0:35.34 | 18350 | 21008 3 | 4:40.09 | 3:46.41 | 21009 | 37999 4 | 8:26.50 | 6:30.34 | 38000 | 67283 5 | 14:57.09 | 3:52.73 | 67284 | 84756 6 | 18:50.07 | 2:06.19 | 84757 | 94225 7 | 20:56.26 | 4:07.65 | 94226 | 112815 8 | 25:04.16 | 3:39.00 | 112816 | 129240 9 | 28:43.16 | 5:10.48 | 129241 | 152538 10 | 33:53.64 | 1:47.71 | 152539 | 160634 11 | 35:41.60 | 3:33.43 | 160635 | 176652 12 | 39:15.28 | 3:25.37 | 176653 | 192064 13 | 42:40.65 | 5:26.02 | 192065 | 216516 14 | 48:06.67 | 2:16.68 | 216517 | 226784 15 | 50:23.60 | 4:45.13 | 226785 | 248172 16 | 55:08.73 | 2:05.06 | 248173 | 257553 17 | 57:14.04 | 5:30.69 | 257554 | 282372 18 | 62:44.73 | 4:04.27 | 282373 | 300699 19 | 66:49.25 | 3:31.35 | 300700 | 316559

Track 1

Filename C:\EAC\01 - Skrillex - Scary Monsters And Nice Sprites.wav

Pre-gap length 0:00:02.00

Peak level 92.4 % Extraction speed 1.1 X Track quality 99.9 % Test CRC D129694E Copy CRC D129694E Track not present in AccurateRip database Copy OK

Track 2

Filename C:\EAC\02 - Cliff Martinez & Skrillex - Rise And Shine Little BxxxH.wav

Pre-gap length 0:00:00.40

Peak level 86.3 % Extraction speed 0.7 X Track quality 100.0 % Test CRC 14C0A698 Copy CRC 14C0A698 Track not present in AccurateRip database Copy OK

Track 3

Filename C:\EAC\03 - Cliff Martinez - Pretend It''s A Video Game.wav

Pre-gap length 0:00:00.40

Peak level 99.9 % Extraction speed 1.4 X Track quality 100.0 % Test CRC 2FBC5758 Copy CRC 2FBC5758 Track not present in AccurateRip database Copy OK

Track 4

Filename C:\EAC\04 - Skrillex - With You, Friends (Long Drive).wav

Pre-gap length 0:00:00.40

Peak level 84.3 % Extraction speed 1.5 X Track quality 99.9 % Test CRC 56D8AA6D Copy CRC 56D8AA6D Track not present in AccurateRip database Copy OK

Track 5

Filename C:\EAC\05 - Dangeruss & James Franco - Hangin'' With Da Dopeboys.wav

Pre-gap length 0:00:01.13

Peak level 98.8 % Extraction speed 1.6 X Track quality 100.0 % Test CRC C18972B9 Copy CRC C18972B9 Track not present in AccurateRip database Copy OK

Track 6

Filename C:\EAC\06 - Cliff Martinez & Skrillex - Bikinis & Big Booties Y''All.wav

Pre-gap length 0:00:01.53

Peak level 93.1 % Extraction speed 1.5 X Track quality 100.0 % Test CRC 496CF240 Copy CRC 496CF240 Track not present in AccurateRip database Copy OK

Track 7

Filename C:\EAC\07 - Cliff Martinez - Never Gonna Get This PxxxY.wav

Pre-gap length 0:00:01.00

Peak level 100.0 % Extraction speed 1.8 X Track quality 100.0 % Test CRC 05EFF789 Copy CRC 05EFF789 Track not present in AccurateRip database Copy OK

Track 8

Filename C:\EAC\08 - Birdy Nam Nam - Goin'' In (Skrillex Goin'' Down Mix).wav

Pre-gap length 0:00:00.53

Peak level 94.6 % Extraction speed 1.9 X Track quality 100.0 % Test CRC CF371386 Copy CRC CF371386 Track not present in AccurateRip database Copy OK

Track 9

Filename C:\EAC\09 - Waka Flocka Flame - FxxK This Industry.wav

Pre-gap length 0:00:00.66

Peak level 99.2 % Extraction speed 2.0 X Track quality 100.0 % Test CRC 8A9630B1 Copy CRC 8A9630B1 Track not present in AccurateRip database Copy OK

Track 10

Filename C:\EAC\10 - Skrillex - Smell This Money (Original Mix).wav

Pre-gap length 0:00:01.00

Peak level 91.2 % Extraction speed 1.7 X Track quality 100.0 % Test CRC 28282910 Copy CRC 28282910 Track not present in AccurateRip database Copy OK

Track 11

Filename C:\EAC\11 - Skrillex - Park Smoke.wav

Pre-gap length 0:00:01.00

Peak level 99.9 % Extraction speed 2.0 X Track quality 100.0 % Test CRC 086EE895 Copy CRC 086EE895 Track not present in AccurateRip database Copy OK

Track 12

Filename C:\EAC\12 - Gucci Mane - Young NxxxxS (Feat. Waka Flocka Flame).wav

Pre-gap length 0:00:00.66

Peak level 97.5 % Extraction speed 1.8 X Track quality 99.9 % Test CRC A0D4E6B0 Copy CRC A0D4E6B0 Track not present in AccurateRip database Copy OK

Track 13

Filename C:\EAC\13 - Cliff Martinez - Your Friends Ain''t Gonna Leave With You.wav

Pre-gap length 0:00:00.66

Peak level 94.6 % Extraction speed 2.1 X Track quality 99.9 % Test CRC D0D602A2 Copy CRC D0D602A2 Track not present in AccurateRip database Copy OK

Track 14

Filename C:\EAC\14 - Skrillex - Ride Home.wav

Pre-gap length 0:00:00.26

Peak level 85.2 % Extraction speed 2.1 X Track quality 100.0 % Test CRC D12F5EA8 Copy CRC D12F5EA8 Track not present in AccurateRip database Copy OK

Track 15

Filename C:\EAC\15 - Meek Mill, Pill, Torch & Rick Ross - Big Bank (Feat. French Montana).wav

Pre-gap length 0:00:01.40

Peak level 100.0 % Extraction speed 2.1 X Track quality 99.9 % Test CRC 96B1C97B Copy CRC 96B1C97B Track not present in AccurateRip database Copy OK

Track 16

Filename C:\EAC\16 - Cliff Martinez & Skrillex - Son Of Scary Monsters.wav

Pre-gap length 0:00:01.13

Peak level 91.8 % Extraction speed 2.1 X Track quality 100.0 % Test CRC B3495797 Copy CRC B3495797 Track not present in AccurateRip database Copy OK

Track 17

Filename C:\EAC\17 - Cliff Martinez - Big ''Ol Scardy Pants.wav

Pre-gap length 0:00:00.86

Peak level 96.0 % Extraction speed 2.5 X Track quality 100.0 % Test CRC F24ADA5E Copy CRC F24ADA5E Track not present in AccurateRip database Copy OK

Track 18

Filename C:\EAC\18 - Skrillex - Scary Monsters On Strings.wav

Pre-gap length 0:00:00.86

Peak level 95.1 % Extraction speed 2.2 X Track quality 99.9 % Test CRC B882E768 Copy CRC B882E768 Track not present in AccurateRip database Copy OK

Track 19

Filename C:\EAC\19 - Ellie Goulding - Lights.wav

Pre-gap length 0:00:01.26

Peak level 85.2 % Extraction speed 2.2 X Track quality 99.9 % Test CRC 4A265ACB Copy CRC 4A265ACB Track not present in AccurateRip database Copy OK

None of the tracks are present in the AccurateRip database

No errors occurred

End of status report

==== Log checksum 050027B0148FDACB68301335562736827702515C34DF2784CF4CA354A85BF2E6 ====
REM GENRE SoundtrackREM DATE 2013REM DISCID FE107C13REM COMMENT "ExactAudioCopy v1.0b3"CATALOG 0075678732287PERFORMER "Various Artists"TITLE "Spring Breakers"FILE "01 - Skrillex - Scary Monsters And Nice Sprites.wav" WAVE TRACK 01 AUDIO TITLE "Scary Monsters And Nice Sprites" PERFORMER "Skrillex" ISRC USAT21300283 INDEX 01 00:00:00 TRACK 02 AUDIO TITLE "Rise And Shine Little B***H" PERFORMER "Cliff Martinez & Skrillex" ISRC USAT21300286 INDEX 00 04:04:20FILE "02 - Cliff Martinez & Skrillex - Rise And Shine Little BxxxH.wav" WAVE INDEX 01 00:00:00 TRACK 03 AUDIO TITLE "Pretend It''s A Video Game" PERFORMER "Cliff Martinez" ISRC USAT21300299 INDEX 00 00:35:04FILE "03 - Cliff Martinez - Pretend It''s A Video Game.wav" WAVE INDEX 01 00:00:00 TRACK 04 AUDIO TITLE "With You, Friends (Long Drive)" PERFORMER "Skrillex" ISRC USAT21300310 INDEX 00 03:46:11FILE "04 - Skrillex - With You, Friends (Long Drive).wav" WAVE INDEX 01 00:00:00 TRACK 05 AUDIO TITLE "Hangin'' With Da Dopeboys" PERFORMER "Dangeruss & James Franco" ISRC USAT21300311 INDEX 00 06:29:24FILE "05 - Dangeruss & James Franco - Hangin'' With Da Dopeboys.wav" WAVE INDEX 01 00:00:00 TRACK 06 AUDIO TITLE "Bikinis & Big Booties Y''All" PERFORMER "Cliff Martinez & Skrillex" ISRC USAT21300312 INDEX 00 03:51:33FILE "06 - Cliff Martinez & Skrillex - Bikinis & Big Booties Y''All.wav" WAVE INDEX 01 00:00:00 TRACK 07 AUDIO TITLE "Never Gonna Get This P***Y" PERFORMER "Cliff Martinez" ISRC USAT21300313 INDEX 00 02:05:19FILE "07 - Cliff Martinez - Never Gonna Get This PxxxY.wav" WAVE INDEX 01 00:00:00 TRACK 08 AUDIO TITLE "Goin'' In (Skrillex Goin'' Down Mix)" PERFORMER "Birdy Nam Nam" ISRC USAT21300314 INDEX 00 04:07:25FILE "08 - Birdy Nam Nam - Goin'' In (Skrillex Goin'' Down Mix).wav" WAVE INDEX 01 00:00:00 TRACK 09 AUDIO TITLE "F**K This Industry" PERFORMER "Waka Flocka Flame" ISRC USWB11300372 INDEX 00 03:38:25FILE "09 - Waka Flocka Flame - FxxK This Industry.wav" WAVE INDEX 01 00:00:00 TRACK 10 AUDIO TITLE "Smell This Money (Original Mix)" PERFORMER "Skrillex" ISRC USAT21300317 INDEX 00 05:09:48FILE "10 - Skrillex - Smell This Money (Original Mix).wav" WAVE INDEX 01 00:00:00 TRACK 11 AUDIO TITLE "Park Smoke" PERFORMER "Skrillex" ISRC USAT21300318 INDEX 00 01:46:71FILE "11 - Skrillex - Park Smoke.wav" WAVE INDEX 01 00:00:00 TRACK 12 AUDIO TITLE "Young N****S (Feat. Waka Flocka Flame)" PERFORMER "Gucci Mane" ISRC USWB11300373 INDEX 00 03:32:68FILE "12 - Gucci Mane - Young NxxxxS (Feat. Waka Flocka Flame).wav" WAVE INDEX 01 00:00:00 TRACK 13 AUDIO TITLE "Your Friends Ain''t Gonna Leave With You" PERFORMER "Cliff Martinez" ISRC USAT21300319 INDEX 00 03:24:62FILE "13 - Cliff Martinez - Your Friends Ain''t Gonna Leave With You.wav" WAVE INDEX 01 00:00:00 TRACK 14 AUDIO TITLE "Ride Home" PERFORMER "Skrillex" ISRC USAT21300320 INDEX 00 05:25:57FILE "14 - Skrillex - Ride Home.wav" WAVE INDEX 01 00:00:00 TRACK 15 AUDIO TITLE "Big Bank (Feat. French Montana)" PERFORMER "Meek Mill, Pill, Torch & Rick Ross" ISRC USWB11300374 INDEX 00 02:15:38FILE "15 - Meek Mill, Pill, Torch & Rick Ross - Big Bank (Feat. French Montana).wav" WAVE INDEX 01 00:00:00 TRACK 16 AUDIO TITLE "Son Of Scary Monsters" PERFORMER "Cliff Martinez & Skrillex" ISRC USAT21300321 INDEX 00 04:44:03FILE "16 - Cliff Martinez & Skrillex - Son Of Scary Monsters.wav" WAVE INDEX 01 00:00:00 TRACK 17 AUDIO TITLE "Big ''Ol Scardy Pants" PERFORMER "Cliff Martinez" ISRC USAT21300322 INDEX 00 02:04:16FILE "17 - Cliff Martinez - Big ''Ol Scardy Pants.wav" WAVE INDEX 01 00:00:00 TRACK 18 AUDIO TITLE "Scary Monsters On Strings" PERFORMER "Skrillex" ISRC USAT21300323 INDEX 00 05:30:04FILE "18 - Skrillex - Scary Monsters On Strings.wav" WAVE INDEX 01 00:00:00 TRACK 19 AUDIO TITLE "Lights" PERFORMER "Ellie Goulding" ISRC USAT21300423 INDEX 00 04:03:07FILE "19 - Ellie Goulding - Lights.wav" WAVE INDEX 01 00:00:00
-----------------------

DON''T MODIFY THIS FILE

-----------------------

PERFORMER: auCDtect Task Manager, ver. 1.5.1RC6 build 1.5.1.7Copyright (c) 2008-2010 y-soft. All rights reservedhttp://y-soft.org

ANALYZER: auCDtect: CD records authenticity detector, version 0.8.2Copyright (c) 2004 Oleg Berngardt. All rights reserved.Copyright (c) 2004 Alexander Djourik. All rights reserved.

FILE: 19 - Ellie Goulding - Lights.flac Size: 24957966 Hash: F015124A5515F06AACC46F012D741FDA Accuracy: -m0 Conclusion: CDDA 100% Signature: F13EEAC44BF5086299E1F93D9FDB2E0347C5C040FILE: 18 - Skrillex - Scary Monsters On Strings.flac Size: 18799183 Hash: AA5BE5233F36AC7D09012F6A41A8DD2E Accuracy: -m0 Conclusion: CDDA 100% Signature: 4E97089FE6AB1139B0CA765ECA6253CC3FEC793DFILE: 17 - Cliff Martinez - Big ''Ol Scardy Pants.flac Size: 22443689 Hash: A4D268EE8339E02938217399CD340D27 Accuracy: -m0 Conclusion: CDDA 100% Signature: 03BC5F616F7EE8F0AC0EB476574FC7F0DD0302A9FILE: 16 - Cliff Martinez & Skrillex - Son Of Scary Monsters.flac Size: 9644171 Hash: E40CE91891A221DC1BC0430968C335E8 Accuracy: -m0 Conclusion: CDDA 100% Signature: A5C9ECDF22E481D84E4F4B6D8C9D81BDB65EB8DCFILE: 15 - Meek Mill, Pill, Torch & Rick Ross - Big Bank (Feat. French Montana).flac Size: 37233640 Hash: 24D3F16EF90F6601F28003C9B56CBC08 Accuracy: -m0 Conclusion: CDDA 100% Signature: EAFA674CEB53BCDC049ADE7BBD8C719E56ECF3E8FILE: 14 - Skrillex - Ride Home.flac Size: 8891937 Hash: 6D5E3DC1F3ECE1F681C9748EB3D4C770 Accuracy: -m0 Conclusion: CDDA 58% Signature: 044FCDB75421266A93422081B85B310C15113977FILE: 13 - Cliff Martinez - Your Friends Ain''t Gonna Leave With You.flac Size: 21455169 Hash: C3531866AE44A7A2759E90A6BC8D3C46 Accuracy: -m0 Conclusion: CDDA 100% Signature: ECC7DA9E50AA3AC5A0C03302546C6F8118A0592BFILE: 12 - Gucci Mane - Young NxxxxS (Feat. Waka Flocka Flame).flac Size: 25004237 Hash: 71875805F1B4FEE1E7A45B14031AE1C3 Accuracy: -m0 Conclusion: CDDA 100% Signature: E8235CB27195BCB7CE566A6D56483E9FCD920397FILE: 11 - Skrillex - Park Smoke.flac Size: 16684362 Hash: 45DA662FB49729DBA0AB59E40C0681AD Accuracy: -m0 Conclusion: ??? Signature: 4F94DE62B48B89DA57CB82B54CDC70B66A1C2741FILE: 10 - Skrillex - Smell This Money (Original Mix).flac Size: 12451029 Hash: 73B1369AF169A1CE67D9AAB63CD2D1D4 Accuracy: -m0 Conclusion: CDDA 100% Signature: ED1782AFBB5EA2E2CCAA6806CCB8F85D133305DCFILE: 09 - Waka Flocka Flame - FxxK This Industry.flac Size: 40172907 Hash: 50E2D2C705FF2B26416ECA8823F42CBD Accuracy: -m0 Conclusion: CDDA 100% Signature: B0E004B46D2088D67263BDEB4740B27D495509FFFILE: 08 - Birdy Nam Nam - Goin'' In (Skrillex Goin'' Down Mix).flac Size: 28986820 Hash: D7E31E78DC735D96D61533392B43557E Accuracy: -m0 Conclusion: CDDA 99% Signature: 9607FA150D3680E4056B17DF9BE449BE67332B3EFILE: 07 - Cliff Martinez - Never Gonna Get This PxxxY.flac Size: 20736066 Hash: 44C61CDB34280C16FB9EA2622F3AF87E Accuracy: -m0 Conclusion: MPEG 100% Signature: 2A1D042EB9FCA2B8D9340A6A5663F95715397035FILE: 06 - Cliff Martinez & Skrillex - Bikinis & Big Booties Y''All.flac Size: 7361250 Hash: 2D44D9B28FE274D00F13B5620D02D982 Accuracy: -m0 Conclusion: CDDA 100% Signature: 6EB285B1220775CA781D56D5EAC63254408A7F36FILE: 05 - Dangeruss & James Franco - Hangin'' With Da Dopeboys.flac Size: 27777189 Hash: F02509308131B6CB2BE4E5E29819A9CD Accuracy: -m0 Conclusion: MPEG 99% Signature: 46880864D47460ABDF29AB59A6DDB54AC601A890FILE: 04 - Skrillex - With You, Friends (Long Drive).flac Size: 44174558 Hash: 53B4AA999CCD24C8735A5098D1B07ED8 Accuracy: -m0 Conclusion: CDDA 99% Signature: 911FC5B900C0B7064BF5C9FCB3F2BF981DA0FD1EFILE: 03 - Cliff Martinez - Pretend It''s A Video Game.flac Size: 16447329 Hash: 4607CD47D8CEF3D39783DAC76034B27D Accuracy: -m0 Conclusion: MPEG 100% Signature: E59C3DAA33864D68CE75B0C4DEC23E9BEAA3968FFILE: 02 - Cliff Martinez & Skrillex - Rise And Shine Little BxxxH.flac Size: 1726644 Hash: 69705F92E65ED8F6B058FB6625FA8758 Accuracy: -m0 Conclusion: MPEG 91% Signature: C6C495034FCA77CBD870C25CA709C3BF799FB3A3FILE: 01 - Skrillex - Scary Monsters And Nice Sprites.flac Size: 29928286 Hash: 876273A44E8607E5B2CE0149C5AB3D03 Accuracy: -m0 Conclusion: CDDA 100% Signature: EE2244273526278EC3794DD05CB83D552492BDFA


Трекер:  [ 25-Сен-2013 08:43 ]

  

Скачать .torrent

Размер .torrent файла 17 KB


Размер: 396 MB
Хэш (hash) релиза: 8d35ee8663cbdbc6e5de50d59872f155b0dda84f

Торренты, похожие на Отвязные каникулы Spring Breakers скачать торрент

Форум Название Автор Размер S L Добавлен
Саундтреки к фильмам и мультфильмам (mp3) ·· (Score) Отвязные каникулы / Spring Breakers (by Cliff Martinez & Skrillex) - 2013, MP3, 320 kbps Galfimbul 169072162161 MB 0 0 1365258894

17:34

6-Апр-13

Еще никто не оставлял запись к записи скачать торрент Отвязные каникулы Spring Breakers . Будь первым!

!Обратная связь