Скачать через торрент Наруто: Джин и три желания! Gekijouban Naruto Soyokazeden:Naruto to Mashin to Mitsu no Onegai Dattebayo!! бесплатно Аниме Все серии на русском torrent

Если у вас наблюдаются проблемы со скриншотами, переходом по ссылками, скачиванием торрентов - проблемы в блокировщике рекламы AdBlock. #хорошегоДня!


Статистика раздачи
Размер:  513 MB   |    Зарегистрирован:  4 года 2 месяца   |    .torrent скачан:  48 раз   |   
Раздают:  1  
   
Загрузка...
 
Автор Сообщение

Polarnik

avatar Polarnik


Наруто: Джин и три желания!
Gekijouban Naruto Soyokazeden: Naruto to Mashin to Mitsu no Onegai Dattebayo!!

Страна: Япония
Год выпуска: 2011 г.
Жанр: приключения, комедия, боевые искусства, сёнэн
Тип: OVA
Продолжительность: 15 минут
Режиссер: Икэхата Такаси / Ikehata Takashi
Перевод: Субтитры (в составе контейнера)
Переводчики: gorodoshnik, Dexus
Описание: В выходной день Наруто с друзьми решили устроить совместный пикник. Вроде бы обычный день, но и в этот раз не обойдётся без приключений. Наруто находит старинный кувшин, и, как оказывается, не пустой. Джин в кувшине готов исполнить только три желания. Неужели, Наруто наконец-то станет Хокаге?
Качество: BDRip [1080p] Source: ADC
Автор рипа: [SOFCJ-Raws]
Скачать: Сэмпл
Тип релиза: Без хардсаба
Формат видео: MKV
Видео: MPEG4 Video (H264) 8 bit 1920x1040 23.976fps 4438 kbps
Аудио: Dolby AC3 48000Hz 6ch 448 kbps
Track #1: video lang: jpn (2) codc: V_MPEG4/ISO/AVC -> H264/AVC (22) reso: 1920x1040 -> Unknown (aka not common) fram: 23.976 fps rate: 4438 kbps (4438.23) dura: 00:14:40 (880.129) size: 465.66 MB (488277361) Track #2: audio lang: jpn -> Japanese (2) codc: A_AC3 -> AC3 (2) chan: 6 -> 5.1 Surround samp: 48000 Hz rate: 448 kbps (448.05) dura: 00:14:40 (880.16) size: 47.01 MB (49294307) Track #3: subtitles lang: rus -> Russian (15) type: S_TEXT/UTF8 -> SRT (3) size: 10.85 KB (11106) Sizes: (check sanity) disk: 512.87 MB (537780505) trac: 512.68 MB (537582774) [based on track size] bitr: 512.67 MB (537569746) [based on bitrate] tdif: 193.10 KB (197731) 0.03% bdif: 205.82 KB (210758) 0.03%
Формат : MatroskaВерсия формата : Version 2Размер файла : 513 МбайтПродолжительность : 14 м.Общий поток : 4888 Кбит/секНазвание фильма : [SOFCJ-Raws] Naruto to Mashin to Mitsu no Onegai Dattebayo!! [1080p]Дата кодирования : UTC 2013-07-25 09:54:29Программа кодирования : mkvmerge v5.0.0 (''''Die Wahre Liebe'''') built on Sep 25 2011 20:33:49Библиотека кодирования : libebml v1.2.2 + libmatroska v1.3.0

ВидеоИдентификатор : 1Формат : AVCФормат/Информация : Advanced Video CodecПрофиль формата : High@L5.0Параметр CABAC формата : ДаПараметр ReFrames формата : 6 кадровИдентификатор кодека : V_MPEG4/ISO/AVCПродолжительность : 14 м.Битрейт : 4500 Кбит/секШирина : 1920 пикселейВысота : 1040 пикселейСоотношение сторон : 1,85:1Режим частоты кадров : ПостоянныйЧастота кадров : 23,976 кадра/секЦветовое пространство : YUVСубдискретизация насыщенности : 4:2:0Битовая глубина : 8 битТип развёртки : ПрогрессивнаяБит/(Пиксели*Кадры) : 0.094Размер потока : 456 Мбайт (89%)Библиотека кодирования : x264 core 136 r2348+704+51 d1baef6 tMod [8-bit@all X86]Настройки программы : cabac=1 / ref=6 / deblock=1:-1:-1 / analyse=0x3:0x133 / me=umh / subme=7 / psy=1 / fade_compensate=0.00 / psy_rd=1.00:0.00 / mixed_ref=1 / me_range=16 / chroma_me=1 / trellis=2 / 8x8dct=1 / cqm=0 / deadzone=21,11 / fast_pskip=0 / chroma_qp_offset=-2 / threads=3 / lookahead_threads=1 / sliced_threads=0 / nr=0 / decimate=1 / interlaced=0 / bluray_compat=0 / constrained_intra=0 / fgo=0 / bframes=4 / b_pyramid=2 / b_adapt=2 / b_bias=0 / direct=1 / weightb=1 / open_gop=0 / weightp=2 / keyint=250 / keyint_min=23 / scenecut=40 / intra_refresh=0 / rc_lookahead=50 / rc=abr / mbtree=1 / bitrate=4500 / ratetol=1.0 / qcomp=0.60 / qpmin=0:0:0 / qpmax=69:69:69 / qpstep=4 / ip_ratio=1.40 / aq=1:1.00 / aq-sensitivity=10.00 / aq-factor=1.00:1.00:1.00 / aq2=0 / aq3=0Язык : JapaneseDefault : ДаForced : НетОсновные цвета : BT.709Характеристики трансфера : BT.709Коэффициенты матрицы : BT.709

АудиоИдентификатор : 2Формат : AC-3Формат/Информация : Audio Coding 3Расширение режима : CM (complete main)Параметр Endianness формата : BigИдентификатор кодека : A_AC3Продолжительность : 14 м.Вид битрейта : ПостоянныйБитрейт : 448 Кбит/секКаналы : 6 каналовРасположение каналов : Front: L C R, Side: L R, LFEЧастота : 48,0 КГцБитовая глубина : 16 битМетод сжатия : С потерямиРазмер потока : 47,0 Мбайт (9%)Язык : JapaneseDefault : ДаForced : Нет

ТекстИдентификатор : 3Формат : UTF-8Идентификатор кодека : S_TEXT/UTF8Идентификатор кодека/Информация : UTF-8 Plain TextЯзык : RussianDefault : ДаForced : Нет


Трекер:  [ 25-Июл-2013 19:04 ]

  

Скачать .torrent

Размер .torrent файла 10 KB


Размер: 513 MB
Хэш (hash) релиза: 315690658a33447c7e8f747d1282b5276edcee57
Подписка на обновления:

Торренты, похожие на Наруто: Джин и три желания! Gekijouban Naruto Soyokazeden:Naruto to Mashin to Mitsu no Onegai Dattebayo!! скачать торрент

Форум Название Автор Размер S L Добавлен
Наруто | Naruto ·· Наруто: Джин и три желания! / Gekijouban Naruto Soyokazeden:Naruto to Mashin to Mitsu no Onegai Dattebayo!! [OVA] [JAP+SUB][Без хардсаба][2011 г., приключения, боевые искусства, сёнэн BDRip] [720p] Polarnik 290345775277 MB 0 0 1374763536

17:45

25-Июл-13

Наруто | Naruto ·· Наруто: Джин и три желания! / Gekijouban Naruto Soyokazeden:Naruto to Mashin to Mitsu no Onegai Dattebayo!! [OVA] [JAP+SUB][Без хардсаба][2011 г., приключения, боевые искусства, сёнэн BDRemux] [1080p] Polarnik 44002242424.1 GB 0 0 1374763529

17:45

25-Июл-13

Еще никто не оставлял запись к записи скачать торрент Наруто: Джин и три желания! Gekijouban Naruto Soyokazeden:Naruto to Mashin to Mitsu no Onegai Dattebayo!! . Будь первым!

!Обратная связь