Скачать через торрент Макросс Плюс Macross Plus бесплатно Аниме Все серии на русском torrent

Если у вас наблюдаются проблемы со скриншотами, переходом по ссылками, скачиванием торрентов - проблемы в блокировщике рекламы AdBlock. #хорошегоДня!


Статистика раздачи
Размер:  5.19 GB   |    Зарегистрирован:  4 года 1 месяц   |    .torrent скачан:  34 раза   |   
Раздают:  1  
   
Загрузка...
 
Автор Сообщение

Polarnik

avatar Polarnik


Макросс Плюс / Macross Plus OVA
Страна: Япония
Год выпуска: 1994-1995
Жанр: приключения, фантастика, меха, драма
Тип: OVA
Продолжительность: 4 эп. ~ 38 мин
Озвучка:
Профессиональная многоголосная закадровая MC Entertainment
Русские субтитры: есть
от MC Entertainment
Студия:
Режиссер: Ватанабэ Синъитиро
Описание: 2040 год, планета Эдем. Пилот-сорвиголова Исаму Дайсон переводится на испытания нового истребителя и сталкивается со старым соперником Галдом Боуманом – тот пилотирует в конкурирующем проекте. Появление Мьюн, их бывшей девушки, распаляет давний конфликт. Тем временем на планете стартует долгожданный концерт виртуальной суперзвезды Шэрон Эппл...

© World Art
Справка:
У данного OVA-сериала Macross Plus есть ремейк в виде фильма. При создании фильма уже отснятый материал OVA редактировался - некоторые сцены вырезали, заменяя новыми.
Качество: BDRip
Релиз/Автор рипа: QTS
Совместимость с бытовыми плеерами: Нет
Наличие линковки: Нет
Тип видео: без хардсаба
Формат: MP4
Видео: x264, 1008х720, (4/3), ~3700кбит/с, 23.976fps, 10 bit
Аудио #1 (внешняя) русская - AAC, 6 ch, 290кбит/с, 48000Hz
Аудио #2 (в контейнере) японская - AAC, 2 ch, ~280кбит/с, 48000Hz
Аудио #3 (в контейнере) английская - AAC, 2 ch, ~320кбит/с, 48000Hz
* Чтобы смотреть с озвучкой, необходимо из папки Rus sound [MC-Ent] переписать файлы в папку, где находятся видеофайлы. Далее, следует запустить плеер и переключиться на mka-дорожку. Подробное описание здесь
* Чтобы смотреть 10-битное видео (10bit), необходимо, исходя из ваших предпочтений используемого проигрывателя, воспользоваться
этой инструкцией.
* Чтобы смотреть с субтитрами, необходимо из папки Rus subs [MC-Ent] переписать файлы в папку, где находятся видеофайлы. В большинстве плееров, одноимённые субтитры подключатся автоматически.

#01 Гиперпространственная крепость Макросс - ТВ (36 эп.), оригинальный сериал, 1982
#02 Макросс: Помнишь ли нашу любовь? - п/ф, ремейк оригинального сериала, 1984
#03 Макросс: Воспоминания о 2012-м годе - OVA (1 эп.), дополнение к оригинальному сериалу, 1987
#04 Макросс II OVA - OVA (6 эп.), продолжение оригинального сериала, 1992
#05 Макросс II - Фильм - п/ф, киноверсия Макросс II OVA, 1993
#06 Макросс Плюс OVA - OVA (4 эп.), продолжение оригинального сериала, 1994
#07 Макросс Плюс - Фильм - п/ф, ремейк Макросс Плюс OVA, 1995
#08 Макросс 7 [ТВ] - ТВ (49 эп.), продолжение, второй сериал, 1994
#09 Макросс 7 На бис - OVA (3 эп.), приложение ко второму сериалу, 1995
#10 Макросс 7 - Фильм - к/ф, spinoff (ответвление сюжета) второго сериала, 1995
#11 Макросс 7 Динамит - OVA (4 эп.), продолжение второго сериала, 1997
#12 Макросс ХХ - OVA (1 эп.), рекламный ролик к 20-летию Макросса, 2002
#13 Макросс Зеро - OVA (5 эп.), предыстория оригинального сериала, 2002
#14 Макросс Фронтир [ТВ] - ТВ (25 эп. + 20 спэшлов Macross Fufonfia), продолжение оригинального сериала, 2008
#15 Макросс Фронтир (фильм первый) - п/ф, spinoff (ответвление сюжета), 2009
#16 Макросс Фронтир (фильм второй) - п/ф, продолжение, 2011
#17 Macross Frontier Music Clip Shuu: Nyankuri - музыкальное видео, дополнение, 2010

01. A.D. 2040 (Deep Space)
02. Brain Waves
03. Investigation
04. It''s Time to End This


Общее
Полное имя : C:\Торренты №2\Macross Plus OVA [BDRip 720p]\[QTS] Macross Plus OVA Vol.1 (BD H264 1008x720 AAC 2.0J+2.0E).mp4
Формат : MPEG-4
Профиль формата : Base Media
Идентификатор кодека : isom
Размер файла : 1,30 Гбайт
Продолжительность : 38 м.
Режим общего битрейта : Переменный
Общий поток : 4787 Кбит/сек
Дата кодирования : UTC 2013-06-23 12:40:49
Дата пометки : UTC 2013-06-23 12:40:49
Программа кодирования : Yamb 2.1.0.0

Видео
Идентификатор : 1
Формат : AVC
Формат/Информация : Advanced Video Codec
Профиль формата : High 10@L5.0
Параметр CABAC формата : Да
Параметр ReFrames формата : 10 кадров
Идентификатор кодека : avc1
Идентификатор кодека/Информация : Advanced Video Coding
Продолжительность : 38 м.
Битрейт : 4175 Кбит/сек
Максимальный битрейт : 18,9 Мбит/сек
Ширина : 1008 пикселей
Высота : 720 пикселей
Соотношение сторон : 1,400
Режим частоты кадров : Постоянный
Частота кадров : 23,976 кадра/сек
Цветовое пространство : YUV
Субдискретизация насыщенности : 4:2:0
Битовая глубина : 10 бит
Тип развёртки : Прогрессивная
Бит/(Пиксели*Кадры) : 0.240
Размер потока : 1,14 Гбайт (87%)
Заголовок : [QTS] MACROSS PLUS Complete Blu-ray Box - MACROSS PLUS OVA Vol.1
Библиотека кодирования : x264 core 133 r2334+704+50 a7549b7 tMod [10-bit@all X86_64]
Настройки программы : cabac=1 / ref=10 / deblock=1:0:0 / analyse=0x3:0x133 / me=umh / subme=11 / psy=1 / fade_compensate=0.00 / psy_rd=1.00:0.00 / mixed_ref=1 / me_range=28 / chroma_me=1 / trellis=2 / 8x8dct=1 / cqm=0 / deadzone=21,11 / fast_pskip=0 / chroma_qp_offset=-2 / threads=9 / lookahead_threads=1 / sliced_threads=0 / nr=0 / decimate=0 / interlaced=0 / bluray_compat=0 / constrained_intra=0 / fgo=0 / bframes=5 / b_pyramid=2 / b_adapt=2 / b_bias=0 / direct=3 / weightb=1 / open_gop=0 / weightp=2 / keyint=240 / keyint_min=24 / scenecut=40 / intra_refresh=0 / rc_lookahead=40 / rc=crf / mbtree=1 / crf=15.0000 / qcomp=0.60 / qpmin=0 / qpmax=51 / qpstep=4 / ip_ratio=1.40 / aq=4:1.00 / aq-sensitivity=10.00 / aq-factor=1.00:1.00:1.00 / aq2=0 / aq3=0
Язык : Japanese
Дата кодирования : UTC 2013-06-23 12:40:49
Дата пометки : UTC 2013-06-23 12:41:02
Основные цвета : BT.709
Характеристики трансфера : BT.709
Коэффициенты матрицы : BT.709

Аудио #1
Идентификатор : 2
Формат : AAC
Формат/Информация : Advanced Audio Codec
Профиль формата : LC
Идентификатор кодека : 40
Продолжительность : 38 м.
Вид битрейта : Переменный
Битрейт : 282 Кбит/сек
Максимальный битрейт : 374 Кбит/сек
Каналы : 2 канала
Расположение каналов : Front: L R
Частота : 48,0 КГц
Метод сжатия : С потерями
Размер потока : 78,4 Мбайт (6%)
Заголовок : Original Japanese Audio 2.0ch
Язык : Japanese
Дата кодирования : UTC 2013-06-21 21:16:10
Дата пометки : UTC 2013-06-23 12:41:02

Аудио #2
Идентификатор : 3
Формат : AAC
Формат/Информация : Advanced Audio Codec
Профиль формата : LC
Идентификатор кодека : 40
Продолжительность : 38 м.
Вид битрейта : Переменный
Битрейт : 325 Кбит/сек
Максимальный битрейт : 417 Кбит/сек
Каналы : 2 канала
Расположение каналов : Front: L R
Частота : 48,0 КГц
Метод сжатия : С потерями
Размер потока : 90,4 Мбайт (7%)
Заголовок : Original English Audio 2.0ch
Язык : English
Дата кодирования : UTC 2013-06-21 21:16:10
Дата пометки : UTC 2013-06-23 12:41:02



Трекер:  [ 24-Июл-2013 17:09 ]

  

Скачать .torrent

Размер .torrent файла 14 KB


Размер: 5.19 GB
Хэш (hash) релиза: ec3e187be92aed3379d2b076977c2565a8e239df
Подписка на обновления:

Еще никто не оставлял запись к записи скачать торрент Макросс Плюс Macross Plus . Будь первым!

!Обратная связь