Скачать порно через торрент Jerky Girls Vol. 86 - Dallas Diamondz Greatest Hits!! UnionPeer.org бесплатно онлайн HD качество

Скачать новое порно 2015, 2014 новинки через торрент UnionPeer.org

Порно торрент бесплатно ЮнионПир.орг

Если у вас наблюдаются проблемы со скриншотами, переходом по ссылками, скачиванием торрентов - проблемы в блокировщике рекламы AdBlock. #хорошегоДня!


Статистика раздачи
Размер:  1.02 GB   |    Зарегистрирован:  4 года 4 месяца   |    .torrent скачан:  517 раз   |   
Раздают:  2  
   
Загрузка...
 
Автор Сообщение

LinGr

avatar LinGr


Jerky Girls Vol. 86 - Dallas Diamondz Greatest Hits!!
Год производства: 2012 г.
Жанр: handjob, masturbation, blowjob
Продолжительность: 00:55:05

Описание: Dallas fucks, fights, seduces, spanks, brutalizes, and jerks her way through this amazing greatest hits compilation!! Dallas Diamondz greatest hits compilation includes many one of kind scenes: HypnoFucked by Dallas, Jerky Jailhouse, Motherly Handjob, Mother's Milk, Mrs. Diamondz, Naked Yoga, Prison Brutallity, and Terminator 2.

Stars: Margo, Kriselle, Dallas Diamondz
Studio: JerkyGirls.com
Series: Jerky Girls (JerkyGirls.com)

Качество видео: DVDRip
Формат видео: AVI
Видео: DivX 5;852x480 (16:9);2500 Kbps;29 fps;0,211 bpp
Аудио: MP3;128 Kbps;CBR;2 ch

Общее
Полное имя : D:\Downloads\JH_162.avi
Формат : AVI
Формат/Информация : Audio Video Interleave
Профиль формата : OpenDML
Размер файла : 1,02 Гбайт
Продолжительность : 55 м.
Общий поток : 2646 Кбит/сек
Программа кодирования : Lavf51.12.1

Видео
Идентификатор : 0
Формат : MPEG-4 Visual
Профиль формата : Simple@L1
Параметр BVOP формата : Нет
Параметр QPel формата : Нет
Параметр GMC формата : Без точки перехода
Параметр матрицы формата : Default (H.263)
Идентификатор кодека : DX50
Идентификатор кодека/Подсказка : DivX 5
Продолжительность : 55 м.
Битрейт : 2500 Кбит/сек
Ширина : 852 пикселя
Высота : 480 пикселей
Соотношение сторон : 16:9
Частота кадров : 29,000 кадров/сек
Цветовое пространство : YUV
Субдискретизация насыщенности : 4:2:0
Битовая глубина : 8 бит
Тип развёртки : Прогрессивная
Метод сжатия : С потерями
Бит/(Пиксели*Кадры) : 0.211
Размер потока : 985 Мбайт (94%)
Библиотека кодирования : Lavc51.40.4

Аудио
Идентификатор : 1
Формат : MPEG Audio
Версия формата : Version 1
Профиль формата : Layer 3
Режим : Joint stereo
Расширение режима : MS Stereo
Идентификатор кодека : 55
Идентификатор кодека/Подсказка : MP3
Продолжительность : 55 м.
Вид битрейта : Постоянный
Битрейт : 128 Кбит/сек
Каналы : 2 канала
Частота : 48,0 КГц
Метод сжатия : С потерями
Размер потока : 50,4 Мбайт (5%)
Выравнивание : Соединение по промежуткам
Продолжительность промежутка : 24 мс. (0,70 видеокадр)
Время предзагрузки промежутка : 24 мс.
Библиотека кодирования : LAME3.97


Трекер:  [ 18-Июл-2013 00:09 ]

  

Скачать .torrent

Размер .torrent файла 10 KB


Размер: 1.02 GB
Хэш (hash) релиза: 0167327c932e3fe0d7f498896f4df7fc233b2baa

bot

Топик был перенесен в форум Видеоролики

Перенес Mahmud_1

Хотите добавить комментарий к записи скачать торрент Jerky Girls Vol. 86 - Dallas Diamondz Greatest Hits!!

!Обратная связь