Скачать порно через торрент Jerky Girls Vol. 87 - Carrie Moon Fever...Again!! UnionPeer.org бесплатно онлайн HD качество

Скачать новое порно 2015, 2014 новинки через торрент UnionPeer.org

Порно торрент бесплатно ЮнионПир.орг

Если у вас наблюдаются проблемы со скриншотами, переходом по ссылками, скачиванием торрентов - проблемы в блокировщике рекламы AdBlock. #хорошегоДня!


Статистика раздачи
Размер:  1.1 GB   |    Зарегистрирован:  4 года 3 месяца   |    .torrent скачан:  1010 раз   |   
Раздают:  2  
   
Загрузка...
 
Автор Сообщение

LinGr

avatar LinGr


Jerky Girls Vol. 87 - Carrie Moon Fever...Again!!
Год производства: 2013 г.
Жанр: handjob, masturbation, blowjob
Продолжительность: 01:05:00

Описание: Carrie Moon, the ultimate Jerky Girl, returns in this compilation of some of her best work. Watch as she teacher her students some sex ed secrets and lets one of the two boys fuck her from behind. Watch her in a number of other scenarios where her hand is always in great use!

Stars: Carrie Moon
Studio: JerkyGirls.com
Series: Jerky Girls (JerkyGirls.com)
Качество видео: DVDRip
Формат видео: AVI
Видео: DivX 5;852x480 (16:9);2267 Kbps;29 fps;0,191 bpp
Аудио: MP3;128 Kbps;CBR;2 ch

Общее
Полное имя : D:\Downloads\JH_163.avi
Формат : AVI
Формат/Информация : Audio Video Interleave
Профиль формата : OpenDML
Размер файла : 1,10 Гбайт
Продолжительность : 1 ч. 5 м.
Общий поток : 2413 Кбит/сек
Программа кодирования : Lavf51.12.1

Видео
Идентификатор : 0
Формат : MPEG-4 Visual
Профиль формата : Simple@L1
Параметр BVOP формата : Нет
Параметр QPel формата : Нет
Параметр GMC формата : Без точки перехода
Параметр матрицы формата : Default (H.263)
Идентификатор кодека : DX50
Идентификатор кодека/Подсказка : DivX 5
Продолжительность : 1 ч. 5 м.
Битрейт : 2267 Кбит/сек
Ширина : 852 пикселя
Высота : 480 пикселей
Соотношение сторон : 16:9
Частота кадров : 29,000 кадров/сек
Цветовое пространство : YUV
Субдискретизация насыщенности : 4:2:0
Битовая глубина : 8 бит
Тип развёртки : Прогрессивная
Метод сжатия : С потерями
Бит/(Пиксели*Кадры) : 0.191
Размер потока : 1,03 Гбайт (94%)
Библиотека кодирования : Lavc51.40.4

Аудио
Идентификатор : 1
Формат : MPEG Audio
Версия формата : Version 1
Профиль формата : Layer 3
Режим : Joint stereo
Расширение режима : MS Stereo
Идентификатор кодека : 55
Идентификатор кодека/Подсказка : MP3
Продолжительность : 1 ч. 5 м.
Вид битрейта : Постоянный
Битрейт : 128 Кбит/сек
Каналы : 2 канала
Частота : 48,0 КГц
Метод сжатия : С потерями
Размер потока : 59,5 Мбайт (5%)
Выравнивание : Соединение по промежуткам
Продолжительность промежутка : 24 мс. (0,70 видеокадр)
Время предзагрузки промежутка : 24 мс.


Трекер:  [ 18-Июл-2013 00:09 ]

  

Скачать .torrent

Размер .torrent файла 11 KB


Размер: 1.1 GB
Хэш (hash) релиза: ce0df706c6d7f39e6e49690695acaf90637849e6

bot

Топик был перенесен в форум Видеоролики

Перенес Mahmud_1

Хотите добавить комментарий к записи скачать торрент Jerky Girls Vol. 87 - Carrie Moon Fever...Again!!

!Обратная связь