Скачать порно через торрент Jerky Girls Vol. 89 - 50 NEW CUMSHOTS UnionPeer.org бесплатно онлайн HD качество

Скачать новое порно 2015, 2014 новинки через торрент UnionPeer.org

Порно торрент бесплатно ЮнионПир.орг

Если у вас наблюдаются проблемы со скриншотами, переходом по ссылками, скачиванием торрентов - проблемы в блокировщике рекламы AdBlock. #хорошегоДня!


Статистика раздачи
Размер:  920 MB   |    Зарегистрирован:  4 года   |    .torrent скачан:  512 раз   |   
Раздают:  1  
   
Загрузка...
 
Автор Сообщение

LinGr

avatar LinGr


Jerky Girls Vol. 89 - 50 NEW CUMSHOTS
Год производства: 2013 г.
Жанр: handjob, masturbation, blowjob
Номер на сайте: 89
Подсайт и сайт: JerkyGirls.com
Продолжительность: 00:51:23

Описание: In the 89th volume of the Jerky Girls series, 50 cocks get jerked off in 50 minutes. This new ‘cumpilation’ is jam packed full of busy hands milking cocks to completion. These luscious ladies use whatever it takes to jerks that cum out of a hard dick, whether it is groups of girls on one man, feet and toes pressed against faces, or even a gigantic set of natural black tits (in scenes 2 and 5). It’s non-stop cum shots, Jerky Girls style.

Качество видео: DVDRip
Формат видео: AVI
Видео: DivX 5;852x480 (16:9);2360 Kbps;29 fps;0,199 bpp
Аудио: MP3;128 Kbps;CBR;2 ch

Общее
Полное имя : D:\Downloads\JH_165.avi
Формат : AVI
Формат/Информация : Audio Video Interleave
Размер файла : 920 Мбайт
Продолжительность : 51 м.
Общий поток : 2502 Кбит/сек
Программа кодирования : Lavf51.12.1

Видео
Идентификатор : 0
Формат : MPEG-4 Visual
Профиль формата : Simple@L1
Параметр BVOP формата : Нет
Параметр QPel формата : Нет
Параметр GMC формата : Без точки перехода
Параметр матрицы формата : Default (H.263)
Идентификатор кодека : DX50
Идентификатор кодека/Подсказка : DivX 5
Продолжительность : 51 м.
Битрейт : 2361 Кбит/сек
Ширина : 852 пикселя
Высота : 480 пикселей
Соотношение сторон : 16:9
Частота кадров : 29,000 кадров/сек
Цветовое пространство : YUV
Субдискретизация насыщенности : 4:2:0
Битовая глубина : 8 бит
Тип развёртки : Прогрессивная
Метод сжатия : С потерями
Бит/(Пиксели*Кадры) : 0.199
Размер потока : 868 Мбайт (94%)
Библиотека кодирования : Lavc51.40.4

Аудио
Идентификатор : 1
Формат : MPEG Audio
Версия формата : Version 1
Профиль формата : Layer 3
Режим : Joint stereo
Расширение режима : MS Stereo
Идентификатор кодека : 55
Идентификатор кодека/Подсказка : MP3
Продолжительность : 51 м.
Вид битрейта : Постоянный
Битрейт : 128 Кбит/сек
Каналы : 2 канала
Частота : 48,0 КГц
Метод сжатия : С потерями
Размер потока : 47,1 Мбайт (5%)
Выравнивание : Соединение по промежуткам
Продолжительность промежутка : 24 мс. (0,70 видеокадр)
Время предзагрузки промежутка : 24 мс.
Библиотека кодирования : LAME3.97


Трекер:  [ 17-Июл-2013 11:39 ]

  

Скачать .torrent

Размер .torrent файла 18 KB


Размер: 920 MB
Хэш (hash) релиза: 34de1bc88ebd90c4085406e1fca5e68719bca0de

bot

Топик был перенесен в форум Видеоролики

Перенес Mahmud_1

Хотите добавить комментарий к записи скачать торрент Jerky Girls Vol. 89 - 50 NEW CUMSHOTS

!Обратная связь