Скачать порно через торрент Jerky Girls Vol. 90 - The Best Of Jerky Girls Part 1 UnionPeer.org бесплатно онлайн HD качество

Скачать новое порно 2015, 2014 новинки через торрент UnionPeer.org

Порно торрент бесплатно ЮнионПир.орг

Если у вас наблюдаются проблемы со скриншотами, переходом по ссылками, скачиванием торрентов - проблемы в блокировщике рекламы AdBlock. #хорошегоДня!


Статистика раздачи
Размер:  1.03 GB   |    Зарегистрирован:  4 года 3 месяца   |    .torrent скачан:  510 раз   |   
Раздают:  2  
   
Загрузка...
 
Автор Сообщение

LinGr

avatar LinGr


Jerky Girls Vol. 90 - The Best Of Jerky Girls Part 1
Год производства: 2013 г.
Жанр: handjob, masturbation, blowjob
Продолжительность: 00:55:29
Номер на сайте: 90
Подсайт и сайт: JerkyGirls.com

Описание: These girls really love to jerk off submissive men. There’s nothing more satisfying to these Jerky Girls than to take hold and dominate these fella’s dicks until they erupt with loads and loads of cum. There’s nothing they can do about it. The Jerky Girls are the best tandem of chicks to stroke dicks!

В ролях: Melony, Kriselle, JC (female), Kaci, Brianna, Alexis, Dallas, Angelique, Lisa, Amanda, Gameryn

Качество видео: DVDRip
Формат видео: AVI
Видео: DivX 5;852x480 (16:9);2499 Kbps;29 fps;0,211 bpp
Аудио: MP3;128 Kbps;CBR;2 ch

Общее
Полное имя : D:\Downloads\JH_167.avi
Формат : AVI
Формат/Информация : Audio Video Interleave
Профиль формата : OpenDML
Размер файла : 1,03 Гбайт
Продолжительность : 55 м.
Общий поток : 2645 Кбит/сек
Программа кодирования : Lavf51.12.1

Видео
Идентификатор : 0
Формат : MPEG-4 Visual
Профиль формата : Simple@L1
Параметр BVOP формата : Нет
Параметр QPel формата : Нет
Параметр GMC формата : Без точки перехода
Параметр матрицы формата : Default (H.263)
Идентификатор кодека : DX50
Идентификатор кодека/Подсказка : DivX 5
Продолжительность : 55 м.
Битрейт : 2500 Кбит/сек
Ширина : 852 пикселя
Высота : 480 пикселей
Соотношение сторон : 16:9
Частота кадров : 29,000 кадров/сек
Цветовое пространство : YUV
Субдискретизация насыщенности : 4:2:0
Битовая глубина : 8 бит
Тип развёртки : Прогрессивная
Метод сжатия : С потерями
Бит/(Пиксели*Кадры) : 0.211
Размер потока : 992 Мбайт (94%)
Библиотека кодирования : Lavc51.40.4

Аудио
Идентификатор : 1
Формат : MPEG Audio
Версия формата : Version 1
Профиль формата : Layer 3
Режим : Joint stereo
Расширение режима : MS Stereo
Идентификатор кодека : 55
Идентификатор кодека/Подсказка : MP3
Продолжительность : 55 м.
Вид битрейта : Постоянный
Битрейт : 128 Кбит/сек
Каналы : 2 канала
Частота : 48,0 КГц
Метод сжатия : С потерями
Размер потока : 50,8 Мбайт (5%)
Выравнивание : Соединение по промежуткам
Продолжительность промежутка : 24 мс. (0,70 видеокадр)
Время предзагрузки промежутка : 24 мс.
Библиотека кодирования : LAME3.97


Трекер:  [ 17-Июл-2013 11:39 ]

  

Скачать .torrent

Размер .torrent файла 11 KB


Размер: 1.03 GB
Хэш (hash) релиза: 93c30406e28f448aee452dce675c91077ed94556

bot

Топик был перенесен в форум Видеоролики

Перенес Mahmud_1

Хотите добавить комментарий к записи скачать торрент Jerky Girls Vol. 90 - The Best Of Jerky Girls Part 1

!Обратная связь