Скачать порно через торрент Jerky Girls Vol. 91 - The Best Of Jerky Girls Part 2 UnionPeer.org бесплатно онлайн HD качество

Скачать новое порно 2015, 2014 новинки через торрент UnionPeer.org

Порно торрент бесплатно ЮнионПир.орг

Если у вас наблюдаются проблемы со скриншотами, переходом по ссылками, скачиванием торрентов - проблемы в блокировщике рекламы AdBlock. #хорошегоДня!


Статистика раздачи
Размер:  1.09 GB   |    Зарегистрирован:  4 года 3 месяца   |    .torrent скачан:  516 раз   |   
Раздают:  1  
   
Загрузка...
 
Автор Сообщение

LinGr

avatar LinGr


Jerky Girls Vol. 91 - The Best Of Jerky Girls Part 2
Год производства: 2013 г.
Жанр: handjob, masturbation, blowjob
Продолжительность: 00:59:00

Описание: The Best of Jerky Girls series returns for a second installment, bringing you 9 more cock-squeezing, hand milking scenes. These thirteen sexy babes are ready willing and able to tug on a cock until it unloads. Scenes included in this set are 2 Young Girls, 4 Girl Foot Frenzy, Jerk Connection 3, Patriots Girl, The Big Spill, and more.

В ролях: Blondie, Sayla, JC (female), Cammy, Harley, Brianna, Angelique, Lisa, Dynamite, Katy, Vanessa, Melony, Pria

Качество видео: DVDRip
Формат видео: AVI
Видео: DivX 5;852x480 (16:9);2500 Kbps;29 fps;0,211 bpp
Аудио: MP3;128 Kbps;CBR;2 ch

Общее
Полное имя : D:\Downloads\JH_168.avi
Формат : AVI
Формат/Информация : Audio Video Interleave
Профиль формата : OpenDML
Размер файла : 1,09 Гбайт
Продолжительность : 59 м.
Общий поток : 2646 Кбит/сек
Программа кодирования : Lavf51.12.1

Видео
Идентификатор : 0
Формат : MPEG-4 Visual
Профиль формата : Simple@L1
Параметр BVOP формата : Нет
Параметр QPel формата : Нет
Параметр GMC формата : Без точки перехода
Параметр матрицы формата : Default (H.263)
Идентификатор кодека : DX50
Идентификатор кодека/Подсказка : DivX 5
Продолжительность : 59 м.
Битрейт : 2500 Кбит/сек
Ширина : 852 пикселя
Высота : 480 пикселей
Соотношение сторон : 16:9
Частота кадров : 29,000 кадров/сек
Цветовое пространство : YUV
Субдискретизация насыщенности : 4:2:0
Битовая глубина : 8 бит
Тип развёртки : Прогрессивная
Метод сжатия : С потерями
Бит/(Пиксели*Кадры) : 0.211
Размер потока : 1,03 Гбайт (95%)
Библиотека кодирования : Lavc51.40.4

Аудио
Идентификатор : 1
Формат : MPEG Audio
Версия формата : Version 1
Профиль формата : Layer 3
Режим : Joint stereo
Расширение режима : MS Stereo
Идентификатор кодека : 55
Идентификатор кодека/Подсказка : MP3
Продолжительность : 59 м.
Вид битрейта : Постоянный
Битрейт : 128 Кбит/сек
Каналы : 2 канала
Частота : 48,0 КГц
Метод сжатия : С потерями
Размер потока : 54,0 Мбайт (5%)
Выравнивание : Соединение по промежуткам
Продолжительность промежутка : 24 мс. (0,70 видеокадр)
Время предзагрузки промежутка : 24 мс.
Библиотека кодирования : LAME3.97


Трекер:  [ 17-Июл-2013 11:39 ]

  

Скачать .torrent

Размер .torrent файла 11 KB


Размер: 1.09 GB
Хэш (hash) релиза: fb86c308a0d87b3b54ee62e0d500c4ed0ccc2733

bot

Топик был перенесен в форум Видеоролики

Перенес Mahmud_1

Хотите добавить комментарий к записи скачать торрент Jerky Girls Vol. 91 - The Best Of Jerky Girls Part 2

!Обратная связь