Скачать через торрент музыку Транс Trance бесплатно без регистрации torrent

Если у вас наблюдаются проблемы со скриншотами, переходом по ссылками, скачиванием торрентов - проблемы в блокировщике рекламы AdBlock. #хорошегоДня!


Статистика раздачи
Размер:  417 MB   |    Зарегистрирован:  3 года 11 месяцев   |    .torrent скачан:  26 раз   |   
Раздают:  1  
   
Загрузка...
 
Автор Сообщение

Polarnik

avatar Polarnik


Транс / Trance
Название альбома: Trance Original Soundtrack
Жанр: Soundtrack
Композитор: Рик Смит
Год выпуска диска: 2013
Год выпуска фильма: 2013
Страна-производитель диска: US
Издатель (лейбл): Universal UMC
Номер по каталогу: B0018295-02
Аудиокодек: FLAC (*.flac)
Тип рипа: tracks+.cue
Битрейт аудио: lossless
Продолжительность: 01:13:12
сайт-источник: WrzMusic
Наличие сканов в содержимом раздачи: да
***
Треклист:
01. Chanson d’amour (Song of Love) – Art & Dotty Todd
02. Bullet Cut – Rick Smith
03. Solomon – Rick Smith
04. Here It Comes – Emeli Sandé & Rick Smith
05. Cannon Fall – Rick Smith
06. Sandman – Kirsty McGee
07. Raw Umber – Rick Smith
08. The Day – Moby
09. Santiago (101 Greatest Goals) – Rick Smith
10. Hold My Hand – UNKLE
11. Bring It To Me – Rick Smith
12. Moving On Up (M People Master Edit) – M People
13. Soho Dim Sum – Rick Smith
14. You Knew – Rick Smith
15. The Heist – Rick Smith
16. Sandman (I’ll be There) – Rosario Dawson & Rick Smith
***<<< Рик Смит
X Lossless Decoder version 20130407 (143.0)

XLD extraction logfile from 2013-04-09 10:32:13 +0100

Rick Smith / Trance (Original Soundtrack)

Used drive : MATSHITA DVD-R UJ-8A8 (revision HB14)Media type : Pressed CD

Ripper mode : XLD Secure RipperDisable audio cache : OK for the drive with a cache less than 1375KiBMake use of C2 pointers : NORead offset correction : 102Max retry count : 100Gap status : Analyzed, Appended (except HTOA)

TOC of the extracted CD Track | Start | Length | Start sector | End sector --------------------------------------------------------- 1 | 00:00:00 | 02:54:07 | 0 | 13056 2 | 02:54:07 | 04:38:72 | 13057 | 33978 3 | 07:33:04 | 07:09:64 | 33979 | 66217 4 | 14:42:68 | 07:38:17 | 66218 | 100584 5 | 22:21:10 | 07:42:74 | 100585 | 135308 6 | 30:04:09 | 03:32:33 | 135309 | 151241 7 | 33:36:42 | 04:07:72 | 151242 | 169838 8 | 37:44:39 | 04:32:38 | 169839 | 190276 9 | 42:17:02 | 06:39:26 | 190277 | 220227 10 | 48:56:28 | 04:59:11 | 220228 | 242663 11 | 53:55:39 | 05:03:38 | 242664 | 265426 12 | 58:59:02 | 03:34:02 | 265427 | 281478 13 | 62:33:04 | 02:22:24 | 281479 | 292152 14 | 64:55:28 | 03:10:21 | 292153 | 306423 15 | 68:05:49 | 03:48:30 | 306424 | 323553 16 | 71:54:04 | 01:18:58 | 323554 | 329461

AccurateRip Summary Disc not found in AccurateRip DB.

All Tracks Album gain : -6.21 dB Peak : 1.000000 Statistics Read error : 0 Jitter error (maybe fixed) : 0 Retry sector count : 0 Damaged sector count : 0

Track 01 Filename : /Users/jem/Music/XLD/Rick Smith – Trance (Original Soundtrack) (2013) [FLAC]/01 - Chanson D''amour (Song Of Love).flac Pre-gap length : 00:02:00

Track gain : -2.63 dB Peak : 0.559387 CRC32 hash (test run) : 5FB2A1C1 CRC32 hash : 5FB2A1C1 CRC32 hash (skip zero) : 0630A114 AccurateRip v1 signature : A10C9438 AccurateRip v2 signature : F08552E7 ->Track not present in AccurateRip database. Statistics Read error : 0 Jitter error (maybe fixed) : 0 Retry sector count : 0 Damaged sector count : 0

Track 02 Filename : /Users/jem/Music/XLD/Rick Smith – Trance (Original Soundtrack) (2013) [FLAC]/02 - Bullet Cut.flac

Track gain : -5.68 dB Peak : 1.000000 CRC32 hash (test run) : 5769D088 CRC32 hash : 5769D088 CRC32 hash (skip zero) : 50B8AB23 AccurateRip v1 signature : BCFDC9CD AccurateRip v2 signature : DC2FD2D5 ->Track not present in AccurateRip database. Statistics Read error : 0 Jitter error (maybe fixed) : 0 Retry sector count : 0 Damaged sector count : 0

Track 03 Filename : /Users/jem/Music/XLD/Rick Smith – Trance (Original Soundtrack) (2013) [FLAC]/03 - Solomon.flac

Track gain : -7.31 dB Peak : 1.000000 CRC32 hash (test run) : F06230D4 CRC32 hash : F06230D4 CRC32 hash (skip zero) : 1F4F90BA AccurateRip v1 signature : 5673B0EB AccurateRip v2 signature : B5E5BD38 ->Track not present in AccurateRip database. Statistics Read error : 0 Jitter error (maybe fixed) : 0 Retry sector count : 0 Damaged sector count : 0

Track 04 Filename : /Users/jem/Music/XLD/Rick Smith – Trance (Original Soundtrack) (2013) [FLAC]/04 - Here It Comes.flac

Track gain : -5.85 dB Peak : 0.978058 CRC32 hash (test run) : C3DDE487 CRC32 hash : C3DDE487 CRC32 hash (skip zero) : 3F2D2764 AccurateRip v1 signature : FD77C34A AccurateRip v2 signature : 2E2DC56E ->Track not present in AccurateRip database. Statistics Read error : 0 Jitter error (maybe fixed) : 0 Retry sector count : 0 Damaged sector count : 0

Track 05 Filename : /Users/jem/Music/XLD/Rick Smith – Trance (Original Soundtrack) (2013) [FLAC]/05 - Cannon Fall.flac

Track gain : -6.17 dB Peak : 1.000000 CRC32 hash (test run) : 3B3C70B2 CRC32 hash : 3B3C70B2 CRC32 hash (skip zero) : 5CCB107F AccurateRip v1 signature : 35C82609 AccurateRip v2 signature : DE5397B0 ->Track not present in AccurateRip database. Statistics Read error : 0 Jitter error (maybe fixed) : 0 Retry sector count : 0 Damaged sector count : 0

Track 06 Filename : /Users/jem/Music/XLD/Rick Smith – Trance (Original Soundtrack) (2013) [FLAC]/06 - Sandman.flac

Track gain : -0.80 dB Peak : 0.512634 CRC32 hash (test run) : 5C453494 CRC32 hash : 5C453494 CRC32 hash (skip zero) : 4B2AAB70 AccurateRip v1 signature : A32C871F AccurateRip v2 signature : 34BD393F ->Track not present in AccurateRip database. Statistics Read error : 0 Jitter error (maybe fixed) : 0 Retry sector count : 0 Damaged sector count : 0

Track 07 Filename : /Users/jem/Music/XLD/Rick Smith – Trance (Original Soundtrack) (2013) [FLAC]/07 - Raw Umber.flac

Track gain : -6.31 dB Peak : 0.992584 CRC32 hash (test run) : C5CAC453 CRC32 hash : C5CAC453 CRC32 hash (skip zero) : 438F5448 AccurateRip v1 signature : F230AA29 AccurateRip v2 signature : 34D11D3C ->Track not present in AccurateRip database. Statistics Read error : 0 Jitter error (maybe fixed) : 0 Retry sector count : 0 Damaged sector count : 0

Track 08 Filename : /Users/jem/Music/XLD/Rick Smith – Trance (Original Soundtrack) (2013) [FLAC]/08 - The Day.flac

Track gain : -6.87 dB Peak : 0.807983 CRC32 hash (test run) : 3BAAB0D6 CRC32 hash : 3BAAB0D6 CRC32 hash (skip zero) : 2D6D84D8 AccurateRip v1 signature : BB301893 AccurateRip v2 signature : 11F90DEE ->Track not present in AccurateRip database. Statistics Read error : 0 Jitter error (maybe fixed) : 0 Retry sector count : 0 Damaged sector count : 0

Track 09 Filename : /Users/jem/Music/XLD/Rick Smith – Trance (Original Soundtrack) (2013) [FLAC]/09 - Santiago (101 Greatest Goals).flac

Track gain : -4.07 dB Peak : 0.911591 CRC32 hash (test run) : 4DC8BF3F CRC32 hash : 4DC8BF3F CRC32 hash (skip zero) : 6BE7F159 AccurateRip v1 signature : 4DE6A012 AccurateRip v2 signature : 57371C88 ->Track not present in AccurateRip database. Statistics Read error : 0 Jitter error (maybe fixed) : 0 Retry sector count : 0 Damaged sector count : 0

Track 10 Filename : /Users/jem/Music/XLD/Rick Smith – Trance (Original Soundtrack) (2013) [FLAC]/10 - Hold My Hand.flac

Track gain : -6.63 dB Peak : 0.776398 CRC32 hash (test run) : F2CEBC32 CRC32 hash : F2CEBC32 CRC32 hash (skip zero) : F57C10F1 AccurateRip v1 signature : CCD6CDBE AccurateRip v2 signature : 3B4AAAC2 ->Track not present in AccurateRip database. Statistics Read error : 0 Jitter error (maybe fixed) : 0 Retry sector count : 0 Damaged sector count : 0

Track 11 Filename : /Users/jem/Music/XLD/Rick Smith – Trance (Original Soundtrack) (2013) [FLAC]/11 - Bring It To Me.flac

Track gain : -6.72 dB Peak : 1.000000 CRC32 hash (test run) : BEBE804F CRC32 hash : BEBE804F CRC32 hash (skip zero) : 9C68E837 AccurateRip v1 signature : EBE067BF AccurateRip v2 signature : 13D3F660 ->Track not present in AccurateRip database. Statistics Read error : 0 Jitter error (maybe fixed) : 0 Retry sector count : 0 Damaged sector count : 0

Track 12 Filename : /Users/jem/Music/XLD/Rick Smith – Trance (Original Soundtrack) (2013) [FLAC]/12 - Moving On Up (M People Master Edit).flac

Track gain : -5.75 dB Peak : 0.755981 CRC32 hash (test run) : 9AD83F04 CRC32 hash : 9AD83F04 CRC32 hash (skip zero) : E4899B86 AccurateRip v1 signature : A02C21BC AccurateRip v2 signature : A3B3EDF7 ->Track not present in AccurateRip database. Statistics Read error : 0 Jitter error (maybe fixed) : 0 Retry sector count : 0 Damaged sector count : 0

Track 13 Filename : /Users/jem/Music/XLD/Rick Smith – Trance (Original Soundtrack) (2013) [FLAC]/13 - Soho Dim Sum.flac

Track gain : 1.86 dB Peak : 0.946259 CRC32 hash (test run) : 71214BD5 CRC32 hash : 71214BD5 CRC32 hash (skip zero) : C6FB2ED0 AccurateRip v1 signature : 27DF45BB AccurateRip v2 signature : FDD1DB41 ->Track not present in AccurateRip database. Statistics Read error : 0 Jitter error (maybe fixed) : 0 Retry sector count : 0 Damaged sector count : 0

Track 14 Filename : /Users/jem/Music/XLD/Rick Smith – Trance (Original Soundtrack) (2013) [FLAC]/14 - You Knew.flac

Track gain : -0.96 dB Peak : 0.946655 CRC32 hash (test run) : 0ABAC338 CRC32 hash : 0ABAC338 CRC32 hash (skip zero) : 6C4AF67C AccurateRip v1 signature : 7A1B2317 AccurateRip v2 signature : 53ABA7BA ->Track not present in AccurateRip database. Statistics Read error : 0 Jitter error (maybe fixed) : 0 Retry sector count : 0 Damaged sector count : 0

Track 15 Filename : /Users/jem/Music/XLD/Rick Smith – Trance (Original Soundtrack) (2013) [FLAC]/15 - The Heist.flac

Track gain : -6.36 dB Peak : 1.000000 CRC32 hash (test run) : FFDFC37D CRC32 hash : FFDFC37D CRC32 hash (skip zero) : 8483927F AccurateRip v1 signature : 1D902DC9 AccurateRip v2 signature : 32FAFA5D ->Track not present in AccurateRip database. Statistics Read error : 0 Jitter error (maybe fixed) : 0 Retry sector count : 0 Damaged sector count : 0

Track 16 Filename : /Users/jem/Music/XLD/Rick Smith – Trance (Original Soundtrack) (2013) [FLAC]/16 - Sandman (I''ll Be There).flac

Track gain : 1.01 dB Peak : 0.833160 CRC32 hash (test run) : 62E2634D CRC32 hash : 62E2634D CRC32 hash (skip zero) : C615B533 AccurateRip v1 signature : 0EEA5665 AccurateRip v2 signature : 3E6F37A1 ->Track not present in AccurateRip database. Statistics Read error : 0 Jitter error (maybe fixed) : 0 Retry sector count : 0 Damaged sector count : 0

No errors occurred

End of status report
TITLE "Trance (Original Soundtrack)"PERFORMER "Rick Smith"CATALOG 0602537339730REM GENRE "Soundtrack"REM DISCNUMBER 1REM TOTALDISCS 1REM DISCID FC112810REM COMPILATION TRUEFILE "01 - Chanson D''amour (Song Of Love).wav" WAVE TRACK 01 AUDIO TITLE "Chanson D''amour (Song Of Love)" PERFORMER "Art & Dotty Todd" ISRC USDEI5803576 REM DATE 1958 INDEX 01 00:00:00FILE "02 - Bullet Cut.wav" WAVE TRACK 02 AUDIO TITLE "Bullet Cut" PERFORMER "Rick Smith" ISRC GBUM71301322 REM DATE 2013 INDEX 01 00:00:00FILE "03 - Solomon.wav" WAVE TRACK 03 AUDIO TITLE "Solomon" PERFORMER "Rick Smith" ISRC GBUM71301323 REM DATE 2013 INDEX 01 00:00:00FILE "04 - Here It Comes.wav" WAVE TRACK 04 AUDIO TITLE "Here It Comes" PERFORMER "Emeli Sande/Rick Smith" ISRC GBAAA1300133 REM DATE 2013 INDEX 01 00:00:00FILE "05 - Cannon Fall.wav" WAVE TRACK 05 AUDIO TITLE "Cannon Fall" PERFORMER "Rick Smith" ISRC GBUM71301324 REM DATE 2013 INDEX 01 00:00:00FILE "06 - Sandman.wav" WAVE TRACK 06 AUDIO TITLE "Sandman" PERFORMER "Kirsty McGee" ISRC GBWBF0800003 REM DATE 2008 INDEX 01 00:00:00FILE "07 - Raw Umber.wav" WAVE TRACK 07 AUDIO TITLE "Raw Umber" PERFORMER "Rick Smith" ISRC GBUM71301373 REM DATE 2013 INDEX 01 00:00:00FILE "08 - The Day.wav" WAVE TRACK 08 AUDIO TITLE "The Day" PERFORMER "Moby" ISRC GB3AD1010006 REM DATE 2011 INDEX 01 00:00:00FILE "09 - Santiago (101 Greatest Goals).wav" WAVE TRACK 09 AUDIO TITLE "Santiago (101 Greatest Goals)" PERFORMER "Rick Smith" ISRC GBUM71301325 REM DATE 2013 INDEX 01 00:00:00FILE "10 - Hold My Hand.wav" WAVE TRACK 10 AUDIO TITLE "Hold My Hand" PERFORMER "UNKLE" ISRC GBPYR0700053 REM DATE 2007 INDEX 01 00:00:00FILE "11 - Bring It To Me.wav" WAVE TRACK 11 AUDIO TITLE "Bring It To Me" PERFORMER "Rick Smith" ISRC GBUM71301326 REM DATE 2013 INDEX 01 00:00:00FILE "12 - Moving On Up (M People Master Edit).wav" WAVE TRACK 12 AUDIO TITLE "Moving On Up (M People Master Edit)" PERFORMER "M People" ISRC GBARL9300030 REM DATE 1993 INDEX 01 00:00:00FILE "13 - Soho Dim Sum.wav" WAVE TRACK 13 AUDIO TITLE "Soho Dim Sum" PERFORMER "Rick Smith" ISRC GBUM71301329 REM DATE 2013 INDEX 01 00:00:00FILE "14 - You Knew.wav" WAVE TRACK 14 AUDIO TITLE "You Knew" PERFORMER "Rick Smith" ISRC GBUM71301330 REM DATE 2013 INDEX 01 00:00:00FILE "15 - The Heist.wav" WAVE TRACK 15 AUDIO TITLE "The Heist" PERFORMER "Rick Smith" ISRC GBUM71301344 REM DATE 2013 INDEX 01 00:00:00FILE "16 - Sandman (I''ll Be There).wav" WAVE TRACK 16 AUDIO TITLE "Sandman (I''ll Be There)" PERFORMER "Rick Smith/Rosario Dawson" ISRC GBUM71301374 REM DATE 2013 INDEX 01 00:00:00
AUDIOCHECKER v2.0 beta (build 457) - by Dester - opdester@freemail.hu~~~~~~~~~~~~~~~~~~~~~~~~~~~~~~~~~~-=== НЕ РЕДАКТИРУЙТЕ ЭТОТ ФАЙЛ! ===-

Путь: ...\Rick Smith - 2013 - Trance [FLAC]

01 -=- 01 - Art & Dotty Todd - Chanson d''amour (Song of Love).flac -=- CDDA (100%)02 -=- 02 - Bullet Cut.flac -=- CDDA (100%)03 -=- 03 - Solomon.flac -=- CDDA (100%)04 -=- 04 - Emeli Sande & Rick Smith - Here It Comes.flac -=- CDDA (99%)05 -=- 05 - Cannon Fall.flac -=- CDDA (100%)06 -=- 06 - Kirsty McGee - Sandman.flac -=- CDDA (100%)07 -=- 07 - Raw Umber.flac -=- MPEG (89%)08 -=- 08 - Moby - The Day.flac -=- CDDA (100%)09 -=- 09 - Santiago (101 Greatest Goals).flac -=- CDDA (100%)10 -=- 10 - UNKLE - Hold My Hand.flac -=- CDDA (100%)11 -=- 11 - Rich Smith - Bring It To Me.flac -=- CDDA (100%)12 -=- 12 - M People - Moving On Up (M People Master Edit).flac -=- CDDA (100%)13 -=- 13 - Soho Dim Sum.flac -=- MPEG (100%)14 -=- 14 - You Knew.flac -=- MPEG (100%)15 -=- 15 - The Heist.flac -=- CDDA (100%)16 -=- 16 - Rosario Dawson & Rick Smith - Sandman (I''ll be There).flac -=- MPEG (90%)

Сводка 76,25% CDDA

23272628


Трекер:  [ 25-Сен-2013 08:49 ]

  

Скачать .torrent

Размер .torrent файла 18 KB


Размер: 417 MB
Хэш (hash) релиза: e4a3b2142a5aaba0241a0958272e2dbeb11f3da1

Еще никто не оставлял запись к записи скачать торрент Транс Trance . Будь первым!

!Обратная связь