Скачать порно через торрент [JerkyGirls.com] Jenny Jerks - Right between the thighs UnionPeer.org бесплатно онлайн HD качество

Скачать новое порно 2015, 2014 новинки через торрент UnionPeer.org

Порно торрент бесплатно ЮнионПир.орг

Если у вас наблюдаются проблемы со скриншотами, переходом по ссылками, скачиванием торрентов - проблемы в блокировщике рекламы AdBlock. #хорошегоДня!


Статистика раздачи
Размер:  42 MB   |    Зарегистрирован:  4 года 3 месяца   |    .torrent скачан:  657 раз   |   
Раздают:  1  
   
Загрузка...
 
Автор Сообщение

Galfimbul

avatar Galfimbul


Jenny Jerks
Video
ID : 2
Format : VC-1
Format profile : MP@ML
Codec ID : WMV3
Codec ID/Info : Windows Media Video 9
Codec ID/Hint : WMV3
Description of the codec : Windows Media Video 9 - Professional
Duration : 3mn 40s
Bit rate mode : Constant
Bit rate : 1 458 Kbps
Width : 720 pixels
Height : 480 pixels
Display aspect ratio : 5:4
Frame rate : 30.000 fps
Standard : NTSC
Bit depth : 8 bits
Scan type : Progressive
Compression mode : Lossy
Bits/(Pixel*Frame) : 0.141
Stream size : 38.3 MiB (91%)
Language : English (US)

Audio
ID : 1
Format : WMA
Format version : Version 2
Codec ID : 161
Codec ID/Info : Windows Media Audio
Description of the codec : Windows Media Audio 9.2 - 128 kbps, 44 kHz, stereo (A/V) 1-pass CBR
Duration : 3mn 40s
Bit rate mode : Constant
Bit rate : 128 Kbps
Channel(s) : 2 channels
Sampling rate : 44.1 KHz
Bit depth : 16 bits
Stream size : 3.36 MiB (8%)
Language : English (US)


Трекер:  [ 14-Июл-2013 22:05 ]

  

Скачать .torrent

Размер .torrent файла 13 KB


Размер: 42 MB
Хэш (hash) релиза: 6347606646015482cfd161f14826e64956c2ae55

Еще никто не оставлял запись к записи скачать торрент [JerkyGirls.com] Jenny Jerks - Right between the thighs . Будь первым!

!Обратная связь