Скачать порно через торрент Epic Cumshot Guy Обновление UnionPeer.org бесплатно онлайн HD качество

Скачать новое порно 2015, 2014 новинки через торрент UnionPeer.org

Порно торрент бесплатно ЮнионПир.орг

Если у вас наблюдаются проблемы со скриншотами, переходом по ссылками, скачиванием торрентов - проблемы в блокировщике рекламы AdBlock. #хорошегоДня!


Статистика раздачи
Размер:  892 MB   |    Зарегистрирован:  4 года 3 месяца   |    .torrent скачан:  359 раз   |   
Раздают:  1  
   
Загрузка...
 
Автор Сообщение

Galfimbul

avatar Galfimbul


Epic Cumshot Guy Обновление

Год производства: 2010 г.
Страна: USA
Жанр: POV, Facial, sex

Качество видео: CamRip
Формат видео: MPEG
Видео кодек: H.264/AVC
Аудио кодек: AAC
Видео: MPEG4 640x480
Аудио: mp4a stereo 44100
Video
ID : 1
Format : AVC
Format/Info : Advanced Video Codec
Format profile : Baseline@L3.0
Format settings, CABAC : No
Format settings, ReFrames : 1 frame
Codec ID : avc1
Codec ID/Info : Advanced Video Coding
Duration : 7mn 8s
Bit rate mode : Variable
Bit rate : 3 520 Kbps
Width : 640 pixels
Height : 480 pixels
Display aspect ratio : 4:3
Frame rate mode : Variable
Frame rate : 16.375 fps
Minimum frame rate : 14.634 fps
Maximum frame rate : 31.579 fps
Resolution : 24 bits
Colorimetry : 4:2:0
Scan type : Progressive
Bits/(Pixel*Frame) : 0.700
Stream size : 180 MiB (98%)
Encoded date : UTC 2010-12-07 16:00:26
Tagged date : UTC 2010-12-07 16:00:26
colour_primaries : BT.601-6 525, BT.1358 525, BT.1700 NTSC, SMPTE 170M
transfer_characteristics : BT.709-5, BT.1361
matrix_coefficients : BT.601-6 525, BT.1358 525, BT.1700 NTSC, SMPTE 170M
Audio
ID : 2
Format : AAC
Format/Info : Advanced Audio Codec
Format version : Version 4
Format profile : LC
Format settings, SBR : No
Format settings, PS : Yes
Codec ID : 40
Duration : 7mn 8s
Bit rate mode : Constant
Bit rate : 64.0 Kbps
Channel(s) : 2 channels
Channel positions : Front: L R
Sampling rate : 44.1 KHz
Resolution : 16 bits
Stream size : 3.27 MiB (2%)
Encoded date : UTC 2010-12-07 16:00:26
Tagged date : UTC 2010-12-07 16:00:26


Трекер:  [ 14-Июл-2013 22:04 ]

  

Скачать .torrent

Размер .torrent файла 18 KB


Размер: 892 MB
Хэш (hash) релиза: a3b8d36d45394defa7a69ab62a9016bbaf06c4d2

Еще никто не оставлял запись к записи скачать торрент Epic Cumshot Guy Обновление . Будь первым!

!Обратная связь