Скачать порно через торрент Tease my cock - Thighjob compilation UnionPeer.org бесплатно онлайн HD качество

Скачать новое порно 2015, 2014 новинки через торрент UnionPeer.org

Порно торрент бесплатно ЮнионПир.орг

Если у вас наблюдаются проблемы со скриншотами, переходом по ссылками, скачиванием торрентов - проблемы в блокировщике рекламы AdBlock. #хорошегоДня!


Статистика раздачи
Размер:  754 MB   |    Зарегистрирован:  4 года 4 месяца   |    .torrent скачан:  741 раз   |   
Раздают:  1  
   
Загрузка...
 
Автор Сообщение

Galfimbul

avatar Galfimbul


Tease my cock - Thighjob compilation
Буду добавлять по мере поступления вопросов
00:33 - Simony Diamond - Private Reality 21 Fuck Me
01:41 - Amy Brooke (55 роликов) (Old Enough To Be Their Mother.avi), также существует версия на 464 MB (PornFidelity.com - Whooty on Wheels)
10:00 - Jenny Jerks
Video
ID : 2
Format : AVC
Format/Info : Advanced Video Codec
Format profile : Baseline@L3.1
Format settings, CABAC : No
Format settings, ReFrames : 5 frames
Format settings, GOP : M=1, N=24
Codec ID : avc1
Codec ID/Info : Advanced Video Coding
Duration : 19mn 49s
Bit rate mode : Variable
Bit rate : 4 996 Kbps
Width : 1 280 pixels
Height : 720 pixels
Display aspect ratio : 16:9
Frame rate mode : Constant
Frame rate : 29.970 fps
Standard : NTSC
Color space : YUV
Chroma subsampling : 4:2:0
Bit depth : 8 bits
Scan type : Progressive
Bits/(Pixel*Frame) : 0.181
Stream size : 709 MiB (94%)
Language : English
Encoded date : UTC 2013-07-13 18:04:14
Tagged date : UTC 2013-07-13 18:04:14

Audio
ID : 1
Format : AAC
Format/Info : Advanced Audio Codec
Format profile : LC
Codec ID : 40
Duration : 19mn 49s
Bit rate mode : Constant
Bit rate : 320 Kbps
Channel(s) : 2 channels
Channel positions : Front: L R
Sampling rate : 48.0 KHz
Compression mode : Lossy
Stream size : 45.4 MiB (6%)
Language : English
Encoded date : UTC 2013-07-13 18:04:14
Tagged date : UTC 2013-07-13 18:04:14


Трекер:  [ 14-Июл-2013 22:03 ]

  

Скачать .torrent

Размер .torrent файла 15 KB


Размер: 754 MB
Хэш (hash) релиза: 2293b1930609f03289c1700c123ad3c192fa8ccc

Еще никто не оставлял запись к записи скачать торрент Tease my cock - Thighjob compilation . Будь первым!

!Обратная связь