Скачать через торрент Святой Рыцарь Holy Knight бесплатно Аниме Все серии на русском torrent

Если у вас наблюдаются проблемы со скриншотами, переходом по ссылками, скачиванием торрентов - проблемы в блокировщике рекламы AdBlock. #хорошегоДня!


Статистика раздачи
Размер:  2.28 GB   |    Зарегистрирован:  4 года 2 месяца   |    .torrent скачан:  44 раза   |   
Раздают:  1  
   
Загрузка...
 
Автор Сообщение

Polarnik

avatar Polarnik






Год выпуска: 2012
Страна: Япония
Жанр: приключения, романтика, мистика, этти
Продолжительность: 2 эпизода по 30 мин.
Перевод:

русские субтитры от Holydarkness & Kampfer & Хэссэ (полные/вспомогательные)
Озвучка:

двухголосая (жен./муж.) от Eladiel & Zendos / Eladiel & Ray (Anilibria)
двухголосая (жен./муж.) от Murder Princess & MCShamaN (AniDub) [1]

многоголосая от DemonOFmooN, MezIdA, Drey (Anifilm)
многоголосая от DAKJE & Monset & Phobia & Vina (Animespace)
Режиссер: Фудзимото Дзиро
Студия: Lyrics
Описание:
История рассказывает о парне-сироте Мизумуре Шинте (Mizumura Shinta), ученике тихой миссионерской школы в Токио. Однако, его спокойная и безмятежная жизнь кардинальным образом меняется, когда в школу переводится девушка из Румынии, по имени Кишимото Лилит - наполовину человек, наполовину вампир. Сам же Мизумура является потомком древнего рода охотников на вампиров.
(с) AlterEgo
Информационные ссылки: AniDB || World Art || MAL
Качество: BDRip
Энкод: Winter - RG Pantheon
Тип видео: без хардсаба
Формат: mkv
Видео: x264 (Hi10p), 1280x720, ~4100 Kbps, 23.976 fps
Аудио JAP: AC3, 48000Hz, ~640 Kbps, 5.1ch
Аудио RUS 1-4: AC3, 48000Hz, ~192 Kbps, 2ch (внешними файлами)
01.
02.
Общее
Уникальный идентификатор : 182576462966935326723987223054228625804 (0x895AF29D9202BC72AD123FD85B8B998C)
Полное имя : Z:\Anime\720p\Holy Knight [BD] [720p]\[Winter] Holy Knight 01 [BDrip 1280x720 x264 Vorbis].mkv
Формат : Matroska
Версия формата : Version 2
Размер файла : 1004 Мбайт
Продолжительность : 30 м.
Общий поток : 4670 Кбит/сек
Дата кодирования : UTC 2013-07-08 06:20:02
Программа кодирования : mkvmerge v2.9.8 (''C''est le bon'') built on Aug 13 2009 12:49:06
Библиотека кодирования : libebml v0.7.7 + libmatroska v0.8.1

Видео
Идентификатор : 1
Формат : AVC
Формат/Информация : Advanced Video Codec
Профиль формата : High 10@L4.1
Параметр CABAC формата : Да
Параметр ReFrames формата : 9 кадров
Идентификатор кодека : V_MPEG4/ISO/AVC
Продолжительность : 30 м.
Битрейт : 3937 Кбит/сек
Ширина : 1280 пикселей
Высота : 720 пикселей
Соотношение сторон : 16:9
Режим частоты кадров : Постоянный
Частота кадров : 23,976 кадра/сек
Цветовое пространство : YUV
Субдискретизация насыщенности : 4:2:0
Битовая глубина : 10 бит
Тип развёртки : Прогрессивная
Бит/(Пиксели*Кадры) : 0.178
Размер потока : 847 Мбайт (84%)
Библиотека кодирования : x264 core 132 r2309 3b1f1f7
Настройки программы : cabac=1 / ref=9 / deblock=1:-2:-2 / analyse=0x3:0x133 / me=umh / subme=9 / psy=1 / psy_rd=0.90:0.00 / mixed_ref=1 / me_range=24 / chroma_me=1 / trellis=2 / 8x8dct=1 / cqm=0 / deadzone=21,11 / fast_pskip=1 / chroma_qp_offset=-2 / threads=6 / lookahead_threads=1 / sliced_threads=0 / nr=0 / decimate=0 / interlaced=0 / bluray_compat=0 / constrained_intra=0 / bframes=8 / b_pyramid=2 / b_adapt=2 / b_bias=0 / direct=1 / weightb=1 / open_gop=0 / weightp=2 / keyint=250 / keyint_min=23 / scenecut=40 / intra_refresh=0 / rc=crf / mbtree=0 / crf=16.0 / qcomp=0.70 / qpmin=9 / qpmax=40 / qpstep=4 / ip_ratio=1.40 / pb_ratio=1.30 / aq=1:0.90
Default : Нет
Forced : Нет

Аудио
Идентификатор : 2
Формат : AC-3
Формат/Информация : Audio Coding 3
Расширение режима : CM (complete main)
Параметр Endianness формата : Big
Идентификатор кодека : A_AC3
Продолжительность : 30 м.
Вид битрейта : Постоянный
Битрейт : 640 Кбит/сек
Каналы : 6 каналов
Расположение каналов : Front: L C R, Side: L R, LFE
Частота : 48,0 КГц
Битовая глубина : 16 бит
Метод сжатия : С потерями
Размер потока : 138 Мбайт (14%)
Язык : Japanese
Default : Да
Forced : Нет


Данный релиз предназначен для просмотра на ПК. Воспроизведение на иных проигрывателях не гарантируется. Для просмотра рекомендуется Media Player Classic с установленным пакетом кодеков K-Lite.

Данный релиз содержит 10-битное видео (Hi10p). Для корректного воспроизведения обязательно используйте кодеки, поддерживающие 10-битное видео.

Данный релиз предназначен для просмотра с внешними субтитрами и внешними звуковыми дорожками.

Для просмотра с внешней звуковой дорожкой нужно:
перекинуть файлы .mka из папки "RUS Sound [<автор(ы) озвучки>]" в одну папку с видео и переключить звуковую дорожку в плеере при просмотре. Как это сделать в разных плеерах подробно описано здесь.
Для просмотра с субтитрами нужно:
перекинуть файлы .ass из папки "RUS Subtitles [<автор(ы) перевода>]" в одну папку с видео - плеер подгрузит их автоматически при открытии видео.


Трекер:  [ 08-Июл-2013 18:50 ]

  

Скачать .torrent

Размер .torrent файла 13 KB


Размер: 2.28 GB
Хэш (hash) релиза: 9e88c0be74533c8c00cc578570d56e4488df633a
Подписка на обновления:

Еще никто не оставлял запись к записи скачать торрент Святой Рыцарь Holy Knight . Будь первым!

!Обратная связь