Скачать через торрент 7 самураев Samurai 7 бесплатно Аниме Все серии на русском torrent

Если у вас наблюдаются проблемы со скриншотами, переходом по ссылками, скачиванием торрентов - проблемы в блокировщике рекламы AdBlock. #хорошегоДня!


Статистика раздачи
Размер:  19.61 GB   |    Зарегистрирован:  4 года 2 месяца   |    .torrent скачан:  54 раза   |   
Раздают:  1  
   
Загрузка...
 
Автор Сообщение

Polarnik

avatar Polarnik


7 самураев / Samurai 7 / Samurai Seven

Страна: Япония
Год выпуска: 2004 г.
Жанр: cамурайский боевик, фантастика, меха
Тип: TV
Продолжительность: ~26 мин. серия
Режиссер: Такидзава Тосифуми
Студия: Gonzo

Описание: В далёком будущем в мире, напоминающем феодальное общество средневековой Японии, много лет бушевала война между самураями, механизировавшими свои тела. Когда же установился мир, некоторые оставшиеся не у дел самураи сбились в разбойные шайки Нобусэри, рыская по стране и отбирая у крестьян рис и женщин в обмен на неприкосновенность. В случае отказа механизированные бандиты дотла сжигали сёла, не щадя ни стар, ни млад. Одна из деревень не смирилась с тем, что выращенный таким трудом урожай достанется грабителям, и решила послать в город посланцев - нанять там самураев для защиты. Не имея возможности предложить иной платы, кроме риса, и отлично понимая, что только отчаянно храбрый самурай пойдёт на такую сделку, крестьяне уповали лишь на чудо. Во главе делегации отправилась жрица воды Кирара, используя своё магическое ожерелье для нахождения того, кому предназначено спасти урожай. С участием Кацусиро, Камбэя и пяти других самураев поход для обороны деревни напротив всех шансов начался...
© Алексей Фадеев, World Art

Доп. информация:
- BluRay издание выходило только в Америке, поэтому все титры выполнены на английском языке.
- Очевидно, Funimation делала BD на основе DVD издания, поэтому размытость и градиенты присутствуют в изобилии.

Качество: BDRip
Тип релиза: Без хардсаба
Формат видео: MKV
Наличие линковки: Нет
Видео: h264, Hi10p, 1920x1080, ~3000 Kbps | 23.976 fps
Аудио: AC3, 448 Kbps, 44100 Hz, 2 ch Язык Японский
Аудио 2: AC3, 448 Kbps, 44100 Hz, 6 ch Язык Русский (внешним файлом) ; Озвучка 2: (многоголосая) MC Entertainment
Субтитры: ASS, внешние Язык субтитров русский ; Перевод: MC Entertainment (подправленные)
GeneralUnique ID : 190520127961410349546199982053920383350 (0x8F54D789B410A0F2B5C6A7265AC8A176)Complete name : Samurai 7 - 01 (BD 1080p 10bit h264 AC3 448kbps).mkvFormat : MatroskaFormat version : Version 4 / Version 2File size : 876 MiBDuration : 26mn 2sOverall bit rate : 4 704 KbpsEncoded date : UTC 2013-07-04 16:55:58Writing application : mkvmerge v6.3.0 (''You can''t stop me!'') built on Jun 28 2013 20:09:41Writing library : libebml v1.3.0 + libmatroska v1.4.0

VideoID : 1Format : AVCFormat/Info : Advanced Video CodecFormat profile : High@L5.0Format settings, CABAC : YesFormat settings, ReFrames : 6 framesCodec ID : V_MPEG4/ISO/AVCDuration : 26mn 2sBit rate : 4 163 KbpsWidth : 1 920 pixelsHeight : 1 080 pixelsDisplay aspect ratio : 16:9Frame rate mode : ConstantFrame rate : 23.976 fpsColor space : YUVChroma subsampling : 4:2:0Bit depth : 8 bitsScan type : ProgressiveBits/(Pixel*Frame) : 0.084Stream size : 775 MiB (88%)Writing library : x264 core 133 r2334 a3ac64bEncoding settings : cabac=1 / ref=6 / deblock=1:1:1 / analyse=0x3:0x133 / me=umh / subme=6 / psy=1 / psy_rd=0.40:0.00 / mixed_ref=1 / me_range=16 / chroma_me=1 / trellis=2 / 8x8dct=1 / cqm=0 / deadzone=21,11 / fast_pskip=0 / chroma_qp_offset=-2 / threads=6 / lookahead_threads=1 / sliced_threads=0 / nr=0 / decimate=1 / interlaced=0 / bluray_compat=0 / constrained_intra=0 / bframes=5 / b_pyramid=2 / b_adapt=1 / b_bias=0 / direct=1 / weightb=1 / open_gop=0 / weightp=2 / keyint=240 / keyint_min=23 / scenecut=40 / intra_refresh=0 / rc_lookahead=40 / rc=crf / mbtree=1 / crf=18.0 / qcomp=0.60 / qpmin=10 / qpmax=51 / qpstep=4 / ip_ratio=1.40 / aq=1:0.60Language : EnglishDefault : YesForced : No

AudioID : 2Format : AC-3Format/Info : Audio Coding 3Mode extension : CM (complete main)Format settings, Endianness : BigCodec ID : A_AC3Duration : 26mn 2sBit rate mode : ConstantBit rate : 448 KbpsChannel(s) : 2 channelsChannel positions : Front: L RSampling rate : 44.1 KHzBit depth : 16 bitsCompression mode : LossyStream size : 83.4 MiB (10%)Language : JapaneseDefault : YesForced : No
01. Руби!
02. Ешь!
03. Не шутите!
04. Готовься!
05. Не взыщи!
06. Доверь это мне!
07. Лечи!
08. Злись!
09. Разруби надвое!
10. Дойди!
11. Приходи!
12. Плачь!
13. Стреляй!
14. Буянь!
15. Вымокни!
16. Умри!
17. Коси!
18. Пробирайся!
19. Восстань!
20. Переодевайся!
21. Не глупи!
22. Дай пощечину!
23. Не лги!
24. Обещай!
25. Падай!
26. Сей!


Трекер:  [ 06-Июл-2013 21:34 ]

  

Скачать .torrent

Размер .torrent файла 58 KB


Размер: 19.61 GB
Хэш (hash) релиза: 041469c1d95858b7687683bd5c57d8432d2d5c60
Подписка на обновления:

Еще никто не оставлял запись к записи скачать торрент 7 самураев Samurai 7 . Будь первым!

!Обратная связь