Скачать порно через торрент Teleclub no Himitsu Secret of Teleclub UnionPeer.org бесплатно онлайн HD качество

Скачать новое порно 2015, 2014 новинки через торрент UnionPeer.org

Порно торрент бесплатно ЮнионПир.орг

Если у вас наблюдаются проблемы со скриншотами, переходом по ссылками, скачиванием торрентов - проблемы в блокировщике рекламы AdBlock. #хорошегоДня!


Статистика раздачи
Размер:  500 MB   |    Зарегистрирован:  4 года 1 месяц   |    .torrent скачан:  64 раза   |   
Раздают:  1  
   
Загрузка...
 
Автор Сообщение

LinGr

avatar LinGr


Teleclub no Himitsu / テレクラの秘密
Secret of Teleclub / Секрет телефонного клуба

Год производства: 1991 г.
Жанр: Romance, Straight, Blowjob
Серии: 1-2 of 2
Продолжительность: 2 x 45 min
Цензура: Есть во всех файлах

Язык: Японский
Озвучка: Оригинальная

Автор оригинала: Narita Akira

Описание на русском: Главный герой - Акира Нарита, посещает телефонный клуб знакомств.
Там он знакомится с женщинами, ходит с ними на свидания, и занимается сексом.

Описание на английском: A lonely man discovers the seedy world of the telephone club,
where he can wait to receive calls from women desperate for sex and soon he becomes a happy escort.
(Based on a manga of the same name by Narita Akira, serialised in Scale.)

Качество видео: VHSRip
Формат видео: AVI

Видео: MSMPEG4v2 320x240 29.97fps 603Kbps(ep. 1) 667Kbps(ep. 2)
Аудио: MPEG Audio Layer 3 48000Hz stereo 128kbps

General
Complete name : Teleclub no Himitsu 1 - Soreike Teleclub.avi
Format : AVI
Format/Info : Audio Video Interleave
File size : 240 MiB
Duration : 45mn 9s
Overall bit rate : 743 Kbps
Writing library : This file was made by AviUtl 0.97f.

Video
ID : 0
Format : MPEG-4 Visual
Codec ID : MP42
Codec ID/Info : Microsoft MPEG-4 v2 (pre-standard)
Codec ID/Hint : Microsoft
Duration : 45mn 9s
Bit rate : 603 Kbps
Width : 320 pixels
Height : 240 pixels
Display aspect ratio : 4:3
Frame rate : 29.970 fps
Compression mode : Lossy
Bits/(Pixel*Frame) : 0.262
Stream size : 195 MiB (81%)

Audio
ID : 1
Format : MPEG Audio
Format version : Version 1
Format profile : Layer 3
Codec ID : 55
Codec ID/Hint : MP3
Duration : 45mn 9s
Bit rate mode : Constant
Bit rate : 128 Kbps
Channel(s) : 2 channels
Sampling rate : 48.0 KHz
Compression mode : Lossy
Delay relative to video : 1ms
Stream size : 41.3 MiB (17%)
Alignment : Split accross interleaves
Interleave, duration : 33 ms (1.00 video frame)
Interleave, preload duration : 33 ms


Трекер:  [ 06-Июл-2013 14:34 ]

  

Скачать .torrent

Размер .torrent файла 20 KB


Размер: 500 MB
Хэш (hash) релиза: 797815e081727b9354a3152bad1c8e99a7e20fc5

bot

Топик был перенесен в форум Хентай | С цензурой

Перенес Mahmud_1

Хотите добавить комментарий к записи скачать торрент Teleclub no Himitsu Secret of Teleclub

!Обратная связь