Скачать через торрент Школа под прицелом Nerawareta Gakuen бесплатно Аниме Все серии на русском torrent

Если у вас наблюдаются проблемы со скриншотами, переходом по ссылками, скачиванием торрентов - проблемы в блокировщике рекламы AdBlock. #хорошегоДня!


Статистика раздачи
Размер:  6.71 GB   |    Зарегистрирован:  4 года 5 месяцев   |    .torrent скачан:  28 раз   |   
Раздают:  1  
   
Загрузка...
 
Автор Сообщение

Polarnik

avatar Polarnik


Школа под прицелом | Nerawareta Gakuen
Год выпуска: 2012
Страна: Япония
Жанры: фантастика, приключения, романтика, школа
Продолжительность: 01:46:31
Перевод:

русские субтитры от Shiranai Tenshi (Перевод: DeepKamate, Оформление: Максим Гардер)
английские субтитры от gg
Озвучка:

двухголосая (муж./жен.) Dark_Demon & Miori (Ghostanime & Rush Team & Wiadub)) Sample
Режиссер: Накамура Рёсукэ
Автор оригинала: Маюмура Таку
Студия: Sunrise
Описание: Весна стала началом нового учебного года в старшей школе Камакура. Новый ученик по обмену, Кёичи Кёгоку зачислен в класс №8. Суть в том, что Кёгоку - телепат, и он очень хорошо запомнил наказ отца использовать свой дар в личных целях. Благодаря своей внешности и телепатии он быстро становится популярным в школе. Все склоняются перед влиянием очарования Кёгоку, а он охотно управляет ими. Причем, к тем, кто не благоговеет перед ним, он относится без малейшей жалости. Уже все пали жертвами его чар, и лишь Сэки стойко противостоит Кёгоку. Удастся ли Сэки вырвать школьников из объятий магии Кёгоку?
Качество: BDRip (Beatrice-Raws / DJATOM)

Формат: MKV

Тип видео: Без хардсаба

Видео кодек: H.264
Аудио кодек: DTS, AAC

Видео: H.264 (10bit), ~7050 Kbps, 1280x720, 23.976 fps
Аудио: - DTS, 1509 Kbps, 48KHz, 6ch
Аудио 2: - AAC, ~192 Kbps, 48KHz, 2ch
(внешним файлом)
General
Unique ID : 173677829409570442317415409723638271903 (0x82A9221B9900B92ABBE3F2445EC7CF9F)
Complete name : J:\Аниме\Полнометражные аниме\Nerawareta Gakuen [BDRip 1280x720 x264 DTS]\[Beatrice-Raws] Nerawareta Gakuen [BDRip 1280x720 x264 DTS].mkv
Format : Matroska
Format version : Version 2
File size : 6.37 GiB
Duration : 1h 46mn
Overall bit rate : 8 562 Kbps
Encoded date : UTC 2013-06-29 15:57:27
Writing application : mkvmerge v5.7.0 (''The Whirlwind'') built on Jul 29 2012 15:12:35
Writing library : libebml v1.2.3 + libmatroska v1.3.0
Attachment : Yes / Yes / Yes / Yes / Yes / Yes / Yes / Yes / Yes / Yes / Yes / Yes / Yes

Video
ID : 1
Format : AVC
Format/Info : Advanced Video Codec
Format profile : High 10@L4.1
Format settings, CABAC : Yes
Format settings, ReFrames : 4 frames
Codec ID : V_MPEG4/ISO/AVC
Duration : 1h 46mn
Bit rate : 6 883 Kbps
Width : 1 280 pixels
Height : 720 pixels
Display aspect ratio : 16:9
Frame rate mode : Constant
Frame rate : 23.976 fps
Color space : YUV
Chroma subsampling : 4:2:0
Bit depth : 10 bits
Scan type : Progressive
Bits/(Pixel*Frame) : 0.311
Stream size : 5.12 GiB (80%)
Title : BDRip by DJATOM
Writing library : x264 core 129 r2245+729M 1a52e03
Encoding settings : cabac=1 / ref=4 / deblock=1:1:-1 / analyse=0x3:0x113 / me=umh / subme=9 / psy=1 / fade_compensate=0.00 / psy_rd=1.00:0.00 / mixed_ref=1 / me_range=32 / chroma_me=1 / trellis=2 / 8x8dct=1 / cqm=0 / deadzone=21,11 / fast_pskip=1 / chroma_qp_offset=-2 / threads=12 / lookahead_threads=2 / sliced_threads=0 / nr=0 / decimate=1 / interlaced=0 / bluray_compat=0 / constrained_intra=0 / fgo=0 / bframes=9 / b_pyramid=2 / b_adapt=2 / b_bias=0 / direct=1 / weightb=1 / open_gop=0 / weightp=2 / keyint=240 / keyint_min=24 / scenecut=40 / intra_refresh=0 / rc=crf / mbtree=0 / crf=16.0 / qcomp=0.72 / qpmin=0 / qpmax=81 / qpstep=4 / ip_ratio=1.40 / pb_ratio=1.30 / aq=1:0.85
Language : Japanese
Default : Yes
Forced : No
Color primaries : BT.709
Transfer characteristics : BT.709
Matrix coefficients : BT.709

Audio
ID : 2
Format : DTS
Format/Info : Digital Theater Systems
Mode : 16
Format settings, Endianness : Big
Codec ID : A_DTS
Duration : 1h 46mn
Bit rate mode : Constant
Bit rate : 1 509 Kbps
Channel(s) : 6 channels
Channel positions : Front: L C R, Side: L R, LFE
Sampling rate : 48.0 KHz
Bit depth : 24 bits
Compression mode : Lossy
Stream size : 1.12 GiB (18%)
Language : Japanese
Default : Yes
Forced : No

Text
ID : 3
Format : ASS
Codec ID : S_TEXT/ASS
Codec ID/Info : Advanced Sub Station Alpha
Compression mode : Lossless
Language : English
Default : No
Forced : No

Menu
00:00:00.000 : en:00:00:00.000
00:01:53.697 : en:00:01:53.697
00:08:48.695 : en:00:08:48.695
00:14:09.265 : en:00:14:09.265
00:18:16.220 : en:00:18:16.220
00:26:48.190 : en:00:26:48.190
00:30:50.557 : en:00:30:50.557
00:34:18.848 : en:00:34:18.848
00:37:33.543 : en:00:37:33.543
00:42:29.672 : en:00:42:29.672
00:48:37.748 : en:00:48:37.748
00:54:37.983 : en:00:54:37.983
00:58:58.535 : en:00:58:58.535
01:02:43.301 : en:01:02:43.301
01:06:35.992 : en:01:06:35.992
01:10:27.849 : en:01:10:27.849
01:15:48.544 : en:01:15:48.544
01:22:13.762 : en:01:22:13.762
01:26:40.946 : en:01:26:40.946
01:28:34.851 : en:01:28:34.851
01:33:05.288 : en:01:33:05.288
01:37:10.867 : en:01:37:10.867
01:40:20.640 : en:01:40:20.640
01:44:43.277 : en:01:44:43.277

Как смотреть 10-битное видео (10бит)
Как подключить альтернативную (внешнюю) звуковую дорожку к видео

Трекер:  [ 03-Июл-2013 19:16 ]

  

Скачать .torrent

Размер .torrent файла 18 KB


Размер: 6.71 GB
Хэш (hash) релиза: 3fbf7be01ebc9b080b865f01180ce2a419603f7a
Подписка на обновления:

Торренты, похожие на Школа под прицелом Nerawareta Gakuen скачать торрент

Форум Название Автор Размер S L Добавлен
Аниме | HD Rips ·· Школа под прицелом / Nerawareta Gakuen / Haunted Academy [Movie] [Без хардсаба] [RUS(ext), JAP+SUB] [2012 г., фантастика, приключения, романтика, BDRip] [1080p] Polarnik 52244918814.87 GB 0 0 1373640391

17:46

12-Июл-13

Еще никто не оставлял запись к записи скачать торрент Школа под прицелом Nerawareta Gakuen . Будь первым!

!Обратная связь