Скачать порно через торрент И снова найдено Премьера UnionPeer.org бесплатно онлайн HD качество

Скачать новое порно 2015, 2014 новинки через торрент UnionPeer.org

Порно торрент бесплатно ЮнионПир.орг

Если у вас наблюдаются проблемы со скриншотами, переходом по ссылками, скачиванием торрентов - проблемы в блокировщике рекламы AdBlock. #хорошегоДня!


Статистика раздачи
Размер:  357 MB   |    Зарегистрирован:  4 года 3 месяца   |    .torrent скачан:  393 раза   |   
Раздают:  1  
   
Загрузка...
 
Автор Сообщение

LinGr

avatar LinGr



И снова найдено. Премьера (надеюсь =) ) "Порнушечка"
Год производства: 2011 г.
Жанр: Amateur
Продолжительность: 00:09:59,00:03:50

Описание: По просьбам "трудящихся" видео пережато =)
Радуемся и говорим спасибо )

Качество видео: CamRip
Формат видео: AVI
Видео кодек: H.264/AVC
Аудио кодек: MP3
Видео: Video: X264 800x480 25fps 2777kbps [Video 0]
Аудио: Audio: MP3 44100Hz stereo 128kbps [Audio 1]


+Фото


General
Complete name : E:\torrent\порнушечка\видео\MVI_0149.avi
Format : AVI
Format/Info : Audio Video Interleave
File size : 208 MiB
Duration : 9mn 59s
Overall bit rate mode : Constant
Overall bit rate : 2 919 Kbps

Video
ID : 0
Format : AVC
Format/Info : Advanced Video Codec
Format profile : Main@L3.0
Format settings, CABAC : Yes
Format settings, ReFrames : 1 frame
Format settings, GOP : M=1, N=25
Codec ID : X264
Codec ID/Info : XiWave GNU GPL x264 MPEG-4
Duration : 9mn 59s
Bit rate mode : Constant
Bit rate : 2 778 Kbps
Width : 800 pixels
Height : 480 pixels
Display aspect ratio : 1.667
Frame rate : 25.000 fps
Color space : YUV
Chroma subsampling : 4:2:0
Bit depth : 8 bits
Scan type : Progressive
Bits/(Pixel*Frame) : 0.289
Stream size : 198 MiB (95%)

Audio
ID : 1
Format : MPEG Audio
Format version : Version 1
Format profile : Layer 3
Codec ID : 55
Codec ID/Hint : MP3
Duration : 9mn 59s
Bit rate mode : Constant
Bit rate : 128 Kbps
Channel(s) : 2 channels
Sampling rate : 44.1 KHz
Compression mode : Lossy
Stream size : 9.14 MiB (4%)
Alignment : Split accross interleaves
Interleave, duration : 26 ms (0.65 video frame)
Interleave, preload duration : 128 ms

General
Complete name : E:\torrent\порнушечка\видео\MVI_9370101.avi
Format : AVI
Format/Info : Audio Video Interleave
File size : 81.4 MiB
Duration : 3mn 49s
Overall bit rate : 2 970 Kbps

Video
ID : 0
Format : AVC
Format/Info : Advanced Video Codec
Format profile : Main@L3.0
Format settings, CABAC : Yes
Format settings, ReFrames : 1 frame
Codec ID : X264
Codec ID/Info : XiWave GNU GPL x264 MPEG-4
Duration : 3mn 49s
Bit rate : 2 829 Kbps
Width : 800 pixels
Height : 480 pixels
Display aspect ratio : 1.667
Frame rate : 25.000 fps
Color space : YUV
Chroma subsampling : 4:2:0
Bit depth : 8 bits
Scan type : Progressive
Bits/(Pixel*Frame) : 0.295
Stream size : 77.6 MiB (95%)

Audio
ID : 1
Format : MPEG Audio
Format version : Version 1
Format profile : Layer 3
Codec ID : 55
Codec ID/Hint : MP3
Duration : 3mn 49s
Bit rate mode : Constant
Bit rate : 128 Kbps
Channel(s) : 2 channels
Sampling rate : 44.1 KHz
Compression mode : Lossy
Stream size : 3.51 MiB (4%)
Alignment : Split accross interleaves
Interleave, duration : 26 ms (0.65 video frame)
Interleave, preload duration : 154 ms


Трекер:  [ 01-Июл-2013 05:54 ]

  

Скачать .torrent

Размер .torrent файла 16 KB


Размер: 357 MB
Хэш (hash) релиза: 823a6b43dc9c559eff5eb5c3f375cb0519e57077

bot

Топик был перенесен в форум Видеоролики

Перенес Mahmud_1

Хотите добавить комментарий к записи скачать торрент И снова найдено Премьера

!Обратная связь