Скачать через торрент Пёс, я и Секретная Служба Inu x Boku SS бесплатно Аниме Все серии на русском torrent

Если у вас наблюдаются проблемы со скриншотами, переходом по ссылками, скачиванием торрентов - проблемы в блокировщике рекламы AdBlock. #хорошегоДня!


Статистика раздачи
Размер:  10.91 GB   |    Зарегистрирован:  4 года 2 месяца   |    .torrent скачан:  47 раз   |   
Раздают:  1  
   
Загрузка...
 
Автор Сообщение

Polarnik

avatar Polarnik






Год выпуска: 2012
Страна: Япония
Жанр: комедия, романтика, мистика
Продолжительность: 13 эп. по 24 мин.
Перевод:

русские субтитры от Shojosei & volta_john (полные/вспомогательные) [TV 1-12]
(перевод и редактура: Kasandra, Sora_P3_Heaven, volta_john, sys3x, Tany Sword)
русские субтитры от antibillotic & kuro & xim [Special]
Режиссер: Цуда Наокацу
Студия: David Production
Описание:
Любой поклонник аниме знает, что в Японии, начиная с Императора, хватает потомков людей и сверхъестественных существ. Смешанная кровь дает большие преимущества, и подобные кланы давно стали тайной аристократией со строгим кодексом чести и поведения. 15-летняя Риритиё из семьи Сиракиин с детства обладала резким и неуживчивым характером, ибо демонические черты проявились в ней особенно ярко. Поэтому, поступив в старшую школу, девушка решила жить отдельно, чтобы разобраться в себе и научиться ладить с окружающими. Но не в каморку же идти наследнице клана – пришлось устраиваться в роскошный отель «Особняк необъяснимого», в народе давно прозванный «Дом с привидениями»!

Риритиё быстро поняла, что новый дом назван так не зря – в нем обитали такие же, как она, молодые люди, которых мудрые «предки» послали повидать жизнь, в то же время обеспечив комфорт и защиту. Для этого к каждому постояльцу приставлен офицер службы безопасности, совмещающий функции спутника, слуги и телохранителя. А кто может вытерпеть, защитить и исполнить капризы полудемона? Только истинный демон во всем блеске своих возможностей! А если он еще питает к хозяйке нежные чувства, то становится ясно, что юной героине жизнь в веселой общине полукровок точно пойдет на пользу!
© Hollow, World Art
Информационные ссылки: AniDB || World Art || MAL
Качество: BDRip
Энкод: Winter - RG Pantheon
Тип видео: без хардсаба
Формат: mkv
Видео: x264 (Hi10p), 1280x720, ~3600 Kbps, 23.976 fps
Аудио JAP: Vorbis, 48000Hz, ~256 Kbps, 2ch
Аудио RUS 1-4: AC3, 48000Hz, ~192 Kbps, 2ch (внешними файлами)
одноголосая (муж.) от Antuan (Opendub) [TV 1-12]
двухголосая (муж./жен.) от Sad kit & Milirina (Anything-group) [TV 1-12 + SP]
трехголосая от Zendos & Eladiel & Lupin (Anilibria) [TV 1-12]
трехголосая от Lord Alukart & Nika Lenina & OSLIKt (AniDub) [TV 1-12 + SP]
01. The Dog and Me
02. The Lonely Dog
03. The Real Contract
04. Ayakashi Kan Walk Rally
05. Kagerou in the Spring
06. Rather Than Thinking
07. The Couple`s Night
08. Tea and Distance
09. The Promised Day
10. The Traitor Fox
11. Haze
12. The Day Two Became One
13 (SP). Miketsukami-kun`s Transformations / Switch / Playing House
Общее
Уникальный идентификатор : 244591883015618964418177477919258516675 (0xB802AEE3ED362E4FA50AD534D2A91CC3)
Полное имя : W:\ANIMATION\720p\Inu x Boku Secret Service [BD] [720p]\[Winter] Inu x Boku Secret Service 01 [BDrip 1280x720 x264 Vorbis].mkv
Формат : Matroska
Версия формата : Version 2
Размер файла : 659 Мбайт
Продолжительность : 24 м.
Режим общего битрейта : Переменный
Общий поток : 3790 Кбит/сек
Дата кодирования : UTC 2012-10-21 16:41:56
Программа кодирования : mkvmerge v2.9.7 (''''Tenderness'''') built on Jul 1 2009 18:43:35
Библиотека кодирования : libebml v0.7.7 + libmatroska v0.8.1

Видео
Идентификатор : 1
Формат : AVC
Формат/Информация : Advanced Video Codec
Профиль формата : High 10@L4.1
Параметр CABAC формата : Да
Параметр ReFrames формата : 9 кадров
Идентификатор кодека : V_MPEG4/ISO/AVC
Продолжительность : 24 м.
Битрейт : 3459 Кбит/сек
Ширина : 1280 пикселей
Высота : 720 пикселей
Соотношение сторон : 16:9
Режим частоты кадров : Постоянный
Частота кадров : 23,976 кадра/сек
Цветовое пространство : YUV
Субдискретизация насыщенности : 4:2:0
Битовая глубина : 10 бит
Тип развёртки : Прогрессивная
Бит/(Пиксели*Кадры) : 0.157
Размер потока : 602 Мбайт (91%)
Библиотека кодирования : x264 core 125 r2200 999b753
Настройки программы : cabac=1 / ref=9 / deblock=1:-2:-2 / analyse=0x3:0x133 / me=umh / subme=9 / psy=1 / psy_rd=0.90:0.00 / mixed_ref=1 / me_range=24 / chroma_me=1 / trellis=2 / 8x8dct=1 / cqm=0 / deadzone=21,11 / fast_pskip=1 / chroma_qp_offset=-2 / threads=6 / lookahead_threads=1 / sliced_threads=0 / nr=0 / decimate=0 / interlaced=0 / bluray_compat=0 / constrained_intra=0 / bframes=8 / b_pyramid=2 / b_adapt=2 / b_bias=0 / direct=1 / weightb=1 / open_gop=0 / weightp=2 / keyint=250 / keyint_min=23 / scenecut=40 / intra_refresh=0 / rc=crf / mbtree=0 / crf=17.4 / qcomp=0.70 / qpmin=9 / qpmax=40 / qpstep=4 / ip_ratio=1.40 / pb_ratio=1.30 / aq=1:0.90
Default : Да
Forced : Нет

Аудио
Идентификатор : 2
Формат : Vorbis
Параметр Floor формата : 1
Идентификатор кодека : A_VORBIS
Продолжительность : 24 м.
Вид битрейта : Переменный
Битрейт : 256 Кбит/сек
Каналы : 2 канала
Частота : 48,0 КГц
Метод сжатия : С потерями
Размер потока : 44,5 Мбайт (7%)
Библиотека кодирования : libVorbis (Schaufenugget) (20101101 (Schaufenugget))
Язык : Japanese
Default : Да
Forced : Нет


Данный релиз предназначен для просмотра на ПК. Воспроизведение на иных проигрывателях не гарантируется. Для просмотра рекомендуется Media Player Classic с установленным пакетом кодеков K-Lite.

Данный релиз содержит 10-битное видео (Hi10p). Для корректного воспроизведения обязательно используйте кодеки, поддерживающие 10-битное видео.

Данный релиз предназначен для просмотра с внешними субтитрами и внешними звуковыми дорожками.

Для просмотра с внешней звуковой дорожкой нужно:
перекинуть файлы .mka из папки "RUS Sound [<автор(ы) озвучки>]" в одну папку с видео и переключить звуковую дорожку в плеере при просмотре. Как это сделать в разных плеерах подробно описано здесь.
Для просмотра с субтитрами нужно:
перекинуть файлы .ass из папки "RUS Subtitles [<автор(ы) перевода>]" в одну папку с видео - плеер подгрузит их автоматически при открытии видео.


Трекер:  [ 03-Июл-2013 19:25 ]

  

Скачать .torrent

Размер .torrent файла 67 KB


Размер: 10.91 GB
Хэш (hash) релиза: 17d41740ba75d1ee6e2e836c676430abfd690291
Подписка на обновления:

Еще никто не оставлял запись к записи скачать торрент Пёс, я и Секретная Служба Inu x Boku SS . Будь первым!

!Обратная связь