Скачать через торрент Большая панда и маленькая панда: Дождливый день в цирке Panda Kopanda: Amefuri Circus no Maki бесплатно Аниме Все серии на русском torrent

Если у вас наблюдаются проблемы со скриншотами, переходом по ссылками, скачиванием торрентов - проблемы в блокировщике рекламы AdBlock. #хорошегоДня!


Статистика раздачи
Размер:  2.37 GB   |    Зарегистрирован:  4 года 3 месяца   |    .torrent скачан:  32 раза   |   
Раздают:  1  
   
Загрузка...
 
Автор Сообщение

Polarnik

avatar Polarnik


Большая панда и маленькая панда
Panda! Go Panda!
Год выпуска: 1973
Страна: Япония
Жанр: приключения, комедия
Продолжительность: 00:38:06
Перевод:

русские субтитры от RUSCICO (полные/вспомогательные)
английские субтитры от neo1024
Озвучка:

многоголосая с R5 от RUSCICO
одноголосая (муж.) А. Толстоброва
Режиссер: Такахата Исао
Студия:
Описание:
Семья из двух медведей и одной девочки – Папа-Панда, Панди и Мимико – живет дружно и счастливо. Совершенно неожиданно к ним в дом забредает маленький ручной тигренок, и Мимико с пандами оказывают гостю всяческое гостеприимство. Оказывается, в их городишко приехал цирк!
© Анастасия Розанова, World Art
Информационные ссылки: AniDB || World Art || MAL
Качество: BDRip
Энкод: neo1024
Тип видео: без хардсаба
Формат: mkv
Видео: H.264 (Hi10p), 960x720, 7702 Kbps, 23.976 fps
Аудио RUS(ext) 1: AC3, 48000Hz, 112 Kbps, 1ch |RUSCICO|
Аудио RUS(ext) 2: AC3, 48000Hz, 256 Kbps, 2ch |А. Толстобров|
Аудио ENG: AC3, 48000Hz, 192 Kbps, 2ch |Geneon|
Аудио JAP: AC3, 48000Hz, 640 Kbps, 2ch
GeneralUnique ID : 239751557976760005158250219926847191015 (0xB45E7870DBEF11CAA930A00F004B77E7)Complete name : E:\Panda Kopanda - Amefuri Circus no Maki [720p]\Panda Kopanda - Amefuri Circus no Maki [BDRip 960x720 x264 AC3].mkvFormat : MatroskaFormat version : Version 4 / Version 2File size : 2.27 GiBDuration : 38mn 5sOverall bit rate : 8 536 KbpsMovie name : Panda Kopanda (2 films)Encoded date : UTC 2013-06-27 20:10:15Writing application : mkvmerge v6.2.0 (''''Promised Land'''') built on Apr 28 2013 12:22:01Writing library : libebml v1.3.0 + libmatroska v1.4.0

VideoID : 1Format : AVCFormat/Info : Advanced Video CodecFormat profile : High 10@L5.0Format settings, CABAC : YesFormat settings, ReFrames : 16 framesCodec ID : V_MPEG4/ISO/AVCDuration : 38mn 5sBit rate : 7 534 KbpsWidth : 960 pixelsHeight : 720 pixelsDisplay aspect ratio : 4:3Frame rate mode : ConstantFrame rate : 23.976 fpsColor space : YUVChroma subsampling : 4:2:0Bit depth : 10 bitsScan type : ProgressiveBits/(Pixel*Frame) : 0.455Stream size : 2.00 GiB (88%)Title : Japanese (x264-10bit, 960x720, 23.976fps, 7600kbps)Language : JapaneseDefault : YesForced : No

Audio #1ID : 2Format : AC-3Format/Info : Audio Coding 3Mode extension : CM (complete main)Format settings, Endianness : BigCodec ID : A_AC3Duration : 38mn 5sBit rate mode : ConstantBit rate : 640 KbpsChannel(s) : 2 channelsChannel positions : Front: L RSampling rate : 48.0 KHzBit depth : 16 bitsCompression mode : LossyDelay relative to video : 18msStream size : 174 MiB (7%)Language : JapaneseDefault : YesForced : No

Audio #2ID : 3Format : AC-3Format/Info : Audio Coding 3Mode extension : CM (complete main)Format settings, Endianness : BigCodec ID : A_AC3Duration : 38mn 5sBit rate mode : ConstantBit rate : 192 KbpsChannel(s) : 2 channelsChannel positions : Front: L RSampling rate : 48.0 KHzBit depth : 16 bitsCompression mode : LossyDelay relative to video : 18msStream size : 52.3 MiB (2%)Language : EnglishDefault : NoForced : No


Трекер:  [ 28-Июн-2013 17:04 ]

  

Скачать .torrent

Размер .torrent файла 13 KB


Размер: 2.37 GB
Хэш (hash) релиза: f3118c89f936f37edcd55b827575c0936d805b49
Подписка на обновления:

Еще никто не оставлял запись к записи скачать торрент Большая панда и маленькая панда: Дождливый день в цирке Panda Kopanda: Amefuri Circus no Maki . Будь первым!

!Обратная связь