Скачать порно через торрент DP Compilation часть 2 UnionPeer.org бесплатно онлайн HD качество

Скачать новое порно 2015, 2014 новинки через торрент UnionPeer.org

Порно торрент бесплатно ЮнионПир.орг

Если у вас наблюдаются проблемы со скриншотами, переходом по ссылками, скачиванием торрентов - проблемы в блокировщике рекламы AdBlock. #хорошегоДня!


Статистика раздачи
Размер:  4.59 GB   |    Зарегистрирован:  4 года 4 месяца   |    .torrent скачан:  723 раза   |   
Раздают:  1  
   
Загрузка...
 
Автор Сообщение

LinGr

avatar LinGr


DP Compilation часть 2
Год производства: 2013 г.
Жанр: Anal, Group, DP, DAP, Double Penetration
Продолжительность: 06:57:44

Описание: Вторая часть компиляции из сцен с двойным проникновением, состоящая из роликов преимущественно девяностых - начала двухтысячных годов. Всем любителям красивого DP посвящается!
Если предыдущая подборка вам понравилась и эту то же оцените, то обязательно будет и продолжение.

Качество видео: SiteRip
Формат видео: AVI
Видео кодек: XviD
Аудио кодек: MP3
Видео: 640x480 (1.33:1), 29.970 fps, XviD build 50 ~1437 kbps avg, 0.16 bit/pixel
Аудио: 44.100 kHz, MPEG Layer 3, 2 ch, ~128.00 kbps avg

Доп. информация:
Приношу извинения всем кому обещал доделать и выложить еще на прошлой неделе. Времени вообще не было... Просидел на днях почти сутки, но все таки склеил!
На тему большого размера прошлой части отзывов не было, в этот раз решил постараться и увеличил количество материала. Объем соответственно то же увеличился. Если возникнут замечания по этому поводу, обязательно пишите, в будущем учту пожелания. И вообще буду рад любым комментариям!

Complete name : dp_compilation2.avi
Format : AVI
Format/Info : Audio Video Interleave
Format profile : OpenDML
File size : 4.59 GiB
Duration : 6h 57mn
Overall bit rate : 1 573 Kbps
Writing application : Lavf52.61.0
Writing library : Boilsoft AVI tool build 30012/release

Video
ID : 0
Format : MPEG-4 Visual
Format profile : Simple@L3
Format settings, BVOP : No
Format settings, QPel : No
Format settings, GMC : No warppoints
Format settings, Matrix : Default (H.263)
Codec ID : XVID
Codec ID/Hint : XviD
Duration : 6h 57mn
Bit rate : 1 433 Kbps
Width : 640 pixels
Height : 480 pixels
Display aspect ratio : 4:3
Frame rate : 29.970 fps
Color space : YUV
Chroma subsampling : 4:2:0
Bit depth : 8 bits
Scan type : Progressive
Compression mode : Lossy
Bits/(Pixel*Frame) : 0.156
Stream size : 4.18 GiB (91%)
Writing library : XviD 1.2.1 (UTC 2008-12-04)

Audio
ID : 1
Format : MPEG Audio
Format version : Version 1
Format profile : Layer 3
Mode : Joint stereo
Mode extension : MS Stereo
Codec ID : 55
Codec ID/Hint : MP3
Duration : 6h 55mn
Bit rate mode : Constant
Bit rate : 128 Kbps
Channel(s) : 2 channels
Sampling rate : 44.1 KHz
Compression mode : Lossy
Stream size : 380 MiB (8%)
Alignment : Aligned on interleaves
Interleave, duration : 26 ms (0.79 video frame)
Interleave, preload duration : 522 ms
Writing library : LAME3.97
Названия практически всех роликов сохранены в оригинале и идут в том же порядке, что и в видео.
Все видео были скачаны с различных сайтов и названия могли быть изменены автором, который их опубликовал. Некоторые из названий изначально не несли никакой информативной пользы. Например просто набор цифр или что то в духе DP_Classic. Какие то сцены или актрис из подобных видео удалось индефицировать и были переименованы. Однако к сожалению не все. Если кто нибудь узнает актрис или название фильмов в подобных моментах, пишите в комментариях, обязытельно исправлю.

Intro
Melanie Petite - Double Anal Club 3
Nikki Anderson - The Lecher
Shyla Foxxx - Enigma
La Sedia a Rotelle Scene 4
Venite con Me (1994) Angellica Bella
Intimita Anale
Maria Bellucci - Spaghetti Connection
Pirate Fetish Machine 25 Scene 2
Notti Magiche_199X_Angelica Bella_Scn-2
Rayveness Dripping Wet Sex 7
Scene 4 Cindy Cox, Christine Nature, Kerolayne
Sexy Luna- Lola(1999)sc.4
Marc Dorcel - Erotic Rondo Scene 3
Silvia's spell 3 scene 4
Una Vita Da Mignotte scene 4
AngelicaBella-Ecstasy-e
Les Bons Coups Scene1
Mogli Cornute
BibiFox DAP
Zora Banx, Suzy Q
Don Salvatore_2
Donna Bell Sheer Nylon
Dornmoeschen
Double penetration on an empty beach
Eliska
Euro guys double penetrate the maid
Fille de Passes
havens-magic-touch-3-scene2
Ivana
IW-AkaFWh-3
Jeanna Fine dp
Jessica May - (Le Segretarie)
Josefine - 22.07.2008
Kathy Heart- Beim Arschfick Abgespritzt
Kimberly Kummings-DAP
KN_-_HG
La Gitane
La seduzione (1994)
Laura Angel - World Sex Tour 18 Prague, Czech Republic
Lea De Mae-The Matador 5
LeAnne_dp
Mandy Mistery
Marc Dorcel - Offertes a tout 08
Marc Dorcel - Offertes a tout 11 - Ally interactive
Monica Gina Wild 2.1
nasty nymphos 29
Nikki Jayne - The Condemned
Olga Pechova double penetration
Olga_Martinez_-_The_Voyeur_s_Best_Anal_Cocksuckers_2
Petra Bull - Anal Intensive 13
Private - Black Label 34 Victoria's Wet Secrets
Private - The Matador Series 10 - Free Riders, Throbbing Choppers
Private - The Matador Series 14 - Anal Psycho-Analysis
Private - Triple X Files 06 - Do You Know Katya Kean Tracy Love
Private Film 08 - Chateau De Passion
Private Video Magazine 17
Pussyman's Spectacular Butt Babes 2
Rocco's Best Butt Fucks 1
Sabina Black Double Filled Cream Teens 2
Sexy Pornstar Classic Babe Seka Double Penetrated - MadThumbs_trade
SF17-1
SilviaLancaume_DP_SexAngelsB.00
SIMPLY 18 PRAGUE DP SCHOOLGIRLS
Smooth Ride
Suzan Nielsen 2_all
TAINTEDLOVE-TTB-NikkiBrantz
The Best Of Milly D'abbraccio Cd2
The Best Of Milly D'abbraccio Cd2
The Voyeur 11 sc1
The Voyeur 11 sc3
Tiffany Hopkins - Eloge de la chair
TiniTonik2-MichelleWild
Triple-X 5
v301_movie_high_md
Valerie
wgnicole
World Sex Tour 27
World Sex Tour14
XXX11
Young_french_girl_take_double_penetration
Hot german gang bang in bath
0001921859
1
china_lee_double_penetration_classic
Garage Fever3
Alyssa Allure
Amanda Gouveia
Anal agent Kowalski
Arraial Do DP Nacional sc1
Assman 12 CD1
Assman 22
Bibi Fox Boob Exam Scam 1
Body_XXX_Scene_5_fh
Carole_DuBois_Gabriella_Blicq_Monika_Bella
Das Madchen Internat 5
Deep in Cream 1
Morgan Fairlane
Venus - Private Fotzen Therapie
92000_1_1_all_all
Betty Dark Anal Strike
Die Skrupellose-scene-2
Die Unbeugsame (La Braga Metalica) -scene-1
DP_VTS_01_2
Air Tight 4
Karma amazone pleasure
german_teen_dp
1026114_hot_german_teen_double_fucked_in_the_gym
Bad_Habits_Scene_2
4012 Cream Team
Melody Kord - World Sex Tour 16
Double Penetration
SIMPLY 18 PRAGUE DP SCHOOLGIRLS
cocomania1
Olivia O'Lovely - Ultimate Asses
Japanese Double Penetration - xHamster.com_12
Maria Bellucci - Grandi labbra - scene 3
Messalina (Les Orgies de Messaline)-scene-1
Bibi Fox Fuck My Ass
Monica Sweetheart - Jessie J. and Friends
nurse_flame_gets_dp_retro_fun


Трекер:  [ 27-Июн-2013 00:40 ]

  

Скачать .torrent

Размер .torrent файла 12 KB


Размер: 4.59 GB
Хэш (hash) релиза: 3cd950309a39d18cff5149223c25d5342f1f213c

bot

Топик был перенесен в форум Видеоролики

Перенес Mahmud_1

Хотите добавить комментарий к записи скачать торрент DP Compilation часть 2

!Обратная связь