Скачать порно через торрент Отдых в отеле UnionPeer.org бесплатно онлайн HD качество

Скачать новое порно 2015, 2014 новинки через торрент UnionPeer.org

Порно торрент бесплатно ЮнионПир.орг

Если у вас наблюдаются проблемы со скриншотами, переходом по ссылками, скачиванием торрентов - проблемы в блокировщике рекламы AdBlock. #хорошегоДня!


Статистика раздачи
Размер:  1.8 GB   |    Зарегистрирован:  4 года 1 месяц   |    .torrent скачан:  880 раз   |   
Раздают:  1  
   
Загрузка...
 
Автор Сообщение

LinGr

avatar LinGr



Отдых в отеле (3 ролика)
Год производства: 2011 г.
Жанр: Amateur
Продолжительность: 00:08:11

Описание: Пара отдыхает в отеле

Тип HD видео: 1080p
Видео: Video: MPEG4 Video (H264) 1920x1080 24.885fps [VideoHandler - MPEG4 Video (H264)]
Аудио: Audio: AAC 44100Hz mono 61kbps [SoundHandler - MPEG-4 Audio]

General
Complete name : E:\torrent\Otdyx_hotel\20111005_231843.mp4
Format : MPEG-4
Format profile : 3GPP Media Release 4
Codec ID : 3gp4
File size : 828 MiB
Duration : 8mn 10s
Overall bit rate mode : Variable
Overall bit rate : 14.2 Mbps

Video
ID : 2
Format : AVC
Format/Info : Advanced Video Codec
Format profile : High@L4.0
Format settings, CABAC : Yes
Format settings, ReFrames : 1 frame
Format settings, GOP : M=1, N=30
Muxing mode : Container profile=Unknown@22.4
Codec ID : avc1
Codec ID/Info : Advanced Video Coding
Duration : 8mn 10s
Source duration : 8mn 10s
Bit rate mode : Variable
Bit rate : 14.1 Mbps
Width : 1 920 pixels
Height : 1 080 pixels
Display aspect ratio : 16:9
Rotation : 180°
Frame rate mode : Variable
Frame rate : 24.883 fps
Minimum frame rate : 20.408 fps
Maximum frame rate : 30.303 fps
Color space : YUV
Chroma subsampling : 4:2:0
Bit depth : 8 bits
Scan type : Progressive
Bits/(Pixel*Frame) : 0.273
Stream size : 824 MiB (100%)
Source stream size : 824 MiB (100%)
Language : English
mdhd_Duration : 490424

Audio
ID : 1
Format : AAC
Format/Info : Advanced Audio Codec
Format profile : LC
Codec ID : 40
Duration : 8mn 10s
Source duration : 8mn 10s
Bit rate mode : Variable
Bit rate : 61.3 Kbps
Maximum bit rate : 68.9 Kbps
Channel(s) : 1 channel
Channel positions : Front: C
Sampling rate : 44.1 KHz
Compression mode : Lossy
Stream size : 3.58 MiB (0%)
Source stream size : 3.58 MiB (0%)
Language : English
mdhd_Duration : 490637

General
Complete name : E:\torrent\Otdyx_hotel\20111005_235638.mp4
Format : MPEG-4
Format profile : 3GPP Media Release 4
Codec ID : 3gp4
File size : 994 MiB
Duration : 9mn 49s
Overall bit rate mode : Variable
Overall bit rate : 14.2 Mbps

Video
ID : 2
Format : AVC
Format/Info : Advanced Video Codec
Format profile : High@L4.0
Format settings, CABAC : Yes
Format settings, ReFrames : 1 frame
Format settings, GOP : M=1, N=30
Muxing mode : Container profile=Unknown@22.4
Codec ID : avc1
Codec ID/Info : Advanced Video Coding
Duration : 9mn 48s
Source duration : 9mn 48s
Bit rate mode : Variable
Bit rate : 14.1 Mbps
Width : 1 920 pixels
Height : 1 080 pixels
Display aspect ratio : 16:9
Rotation : 90°
Frame rate mode : Variable
Frame rate : 24.883 fps
Minimum frame rate : 18.182 fps
Maximum frame rate : 33.333 fps
Color space : YUV
Chroma subsampling : 4:2:0
Bit depth : 8 bits
Scan type : Progressive
Bits/(Pixel*Frame) : 0.273
Stream size : 990 MiB (100%)
Source stream size : 990 MiB (100%)
Language : English
mdhd_Duration : 588886

Audio
ID : 1
Format : AAC
Format/Info : Advanced Audio Codec
Format profile : LC
Codec ID : 40
Duration : 9mn 49s
Source duration : 9mn 48s
Bit rate mode : Variable
Bit rate : 61.4 Kbps
Maximum bit rate : 66.5 Kbps
Channel(s) : 1 channel
Channel positions : Front: C
Sampling rate : 44.1 KHz
Compression mode : Lossy
Stream size : 4.31 MiB (0%)
Source stream size : 4.31 MiB (0%)
Language : English
mdhd_Duration : 589090

General
Complete name : E:\torrent\Otdyx_hotel\20111006_000648.mp4
Format : MPEG-4
Format profile : 3GPP Media Release 4
Codec ID : 3gp4
File size : 23.8 MiB
Duration : 14s 234ms
Overall bit rate mode : Variable
Overall bit rate : 14.0 Mbps

Video
ID : 2
Format : AVC
Format/Info : Advanced Video Codec
Format profile : High@L4.0
Format settings, CABAC : Yes
Format settings, ReFrames : 1 frame
Format settings, GOP : M=1, N=30
Muxing mode : Container profile=Unknown@22.4
Codec ID : avc1
Codec ID/Info : Advanced Video Coding
Duration : 14s 187ms
Source duration : 14s 227ms
Bit rate mode : Variable
Bit rate : 13.9 Mbps
Width : 1 920 pixels
Height : 1 080 pixels
Display aspect ratio : 16:9
Rotation : 90°
Frame rate mode : Variable
Frame rate : 24.882 fps
Minimum frame rate : 22.222 fps
Maximum frame rate : 28.571 fps
Color space : YUV
Chroma subsampling : 4:2:0
Bit depth : 8 bits
Scan type : Progressive
Bits/(Pixel*Frame) : 0.270
Stream size : 23.6 MiB (99%)
Source stream size : 23.7 MiB (100%)
Language : English
mdhd_Duration : 14187

Audio
ID : 1
Format : AAC
Format/Info : Advanced Audio Codec
Format profile : LC
Codec ID : 40
Duration : 14s 234ms
Source duration : 14s 254ms
Bit rate mode : Variable
Bit rate : 61.1 Kbps
Maximum bit rate : 70.8 Kbps
Channel(s) : 1 channel
Channel positions : Front: C
Sampling rate : 44.1 KHz
Compression mode : Lossy
Stream size : 104 KiB (0%)
Source stream size : 104 KiB (0%)
Language : English
mdhd_Duration : 14234


Трекер:  [ 25-Июн-2013 07:25 ]

  

Скачать .torrent

Размер .torrent файла 19 KB


Размер: 1.8 GB
Хэш (hash) релиза: 4dcd718285feeaef2ba10f3714d602616488e74f

Торренты, похожие на Отдых в отеле скачать торрент

Форум Название Автор Размер S L Добавлен
Русское любительское видео ·· Отдых в отеле [2014 г., Blowjob, Cunnilingus, Small Tits, Russian, Amateur, All Sex, 720p, CamRip] Galfimbul 140687682134 MB 0 0 1426100392

21:59

11-Мар-15

Русское любительское видео ·· Отдых в отеле [2011 г., Amateur, Oral, All sex] LinGr 238223434227 MB 0 0 1372645992

05:33

1-Июл-13

bot

Топик был перенесен в форум Видеоролики

Перенес Mahmud_1

Хотите добавить комментарий к записи скачать торрент Отдых в отеле

!Обратная связь