Скачать порно через торрент M Okui Last Order Мазохист на десерт UnionPeer.org бесплатно онлайн HD качество

Скачать новое порно 2015, 2014 новинки через торрент UnionPeer.org

Порно торрент бесплатно ЮнионПир.орг

Если у вас наблюдаются проблемы со скриншотами, переходом по ссылками, скачиванием торрентов - проблемы в блокировщике рекламы AdBlock. #хорошегоДня!


Статистика раздачи
Размер:  233 MB   |    Зарегистрирован:  4 года 3 месяца   |    .torrent скачан:  278 раз   |   
Раздают:  1  
   
Загрузка...
 
Автор Сообщение

LinGr

avatar LinGr


M男食い ラストオーダー
M Okui Last Order / Feast on Mashocist men / Мазохист на десерт

Год производства: 2013 г.
Жанр: Domination, Rape, Oral, Footjob, Group
Серии: ep.1 of ?
Продолжительность: 16 мин
Цензура: Есть во всех файлах
Озвучка: Оригинальная
Язык: Японский
Субтитры: Хардсаб
Язык: Английский (Erobeat) [Перевод: Snake | Тайминг: v1touch | Оформление: ShocWave]
Автор оригинала (мангака): Куросуги Синсаку
Дизайн персонажей: Котобуки Ранко
Студия: MS Pictures
Описание:黒ギャルのリナ&白ギャルのシオリ。
呑み足りなかった二人は、たまには面白いかと手近にあったボッタクリキャバへ知らずにIN。
だが、元武闘派ギャルサーのお二人さん、ドサンピンなんぞとァ格が違う!!

「ウチらナメると泣かしちゃうョ?
黙ってご奉仕しろよ、コラ!!</span>
[b]Качество видео
: DVDRip
Формат видео: MP4
Видео кодек: H.264/AVC
Аудио кодек: AAC
Видео: MPEG4 (H264) | 720x480 (873:480) | (16:9) | 23,976 fps | 1 866 Kbps | 8 bit
Аудио: JAP | AAC | 48000Hz | 2 ch | 96.0 Kbps
Информационные ссылки: MAL | World Art | AniDB | Официальный сайт

Общее
Полное имя : G:\Аниме\!Hen\M Okui Last Order\M Okui Last Order - 01.mp4
Формат : MPEG-4
Профиль формата : Base Media
Идентификатор кодека : isom
Размер файла : 233 Мбайт
Продолжительность : 16 м.
Режим общего битрейта : Переменный
Общий поток : 1963 Кбит/сек
Дата кодирования : UTC 2013-06-22 08:11:03
Дата пометки : UTC 2013-06-22 08:11:03

Видео
Идентификатор : 1
Формат : AVC
Формат/Информация : Advanced Video Codec
Профиль формата : High@L4.1
Параметр CABAC формата : Да
Параметр ReFrames формата : 4 кадра
Идентификатор кодека : avc1
Идентификатор кодека/Информация : Advanced Video Coding
Продолжительность : 16 м.
Битрейт : 1866 Кбит/сек
Максимальный битрейт : 6326 Кбит/сек
Ширина : 720 пикселей
Высота : 480 пикселей
Соотношение сторон : 16:9
Режим частоты кадров : Постоянный
Частота кадров : 23,976 кадра/сек
Стандарт вещания : NTSC
Цветовое пространство : YUV
Субдискретизация насыщенности : 4:2:0
Битовая глубина : 8 бит
Тип развёртки : Прогрессивная
Бит/(Пиксели*Кадры) : 0.225
Размер потока : 221 Мбайт (95%)
Заголовок : [EROBEAT]_M_Okui_Last_Order_-_01_[LQ][x264][B01EA103].mp4
Библиотека кодирования : x264 core 133 r2334 a3ac64b
Настройки программы : cabac=1 / ref=3 / deblock=1:0:0 / analyse=0x3:0x133 / me=umh / subme=9 / psy=1 / psy_rd=1.00:0.00 / mixed_ref=1 / me_range=16 / chroma_me=1 / trellis=2 / 8x8dct=1 / cqm=0 / deadzone=6,6 / fast_pskip=0 / chroma_qp_offset=0 / threads=12 / lookahead_threads=1 / sliced_threads=0 / nr=0 / decimate=0 / interlaced=0 / bluray_compat=0 / constrained_intra=0 / bframes=3 / b_pyramid=2 / b_adapt=2 / b_bias=0 / direct=3 / weightb=1 / open_gop=0 / weightp=2 / keyint=240 / keyint_min=23 / scenecut=40 / intra_refresh=0 / rc_lookahead=40 / rc=2pass / mbtree=1 / bitrate=1866 / ratetol=1.0 / qcomp=0.80 / qpmin=0 / qpmax=51 / qpstep=4 / cplxblur=20.0 / qblur=0.5 / vbv_maxrate=24000 / vbv_bufsize=24000 / nal_hrd=none / ip_ratio=1.10 / aq=1:1.00
Дата кодирования : UTC 2013-06-22 08:03:36
Дата пометки : UTC 2013-06-22 08:11:04

Аудио
Идентификатор : 2
Формат : AAC
Формат/Информация : Advanced Audio Codec
Профиль формата : LC
Идентификатор кодека : 40
Продолжительность : 16 м.
Вид битрейта : Переменный
Битрейт : 96,0 Кбит/сек
Максимальный битрейт : 116 Кбит/сек
Каналы : 2 канала
Расположение каналов : Front: L R
Частота : 48,0 КГц
Метод сжатия : С потерями
Размер потока : 11,3 Мбайт (5%)
Заголовок : [EROBEAT]_M_Okui_Last_Order_-_01_[LQ][x264][B01EA103].mp4
Дата кодирования : UTC 2013-06-22 08:11:03
Дата пометки : UTC 2013-06-22 08:11:04



Трекер:  [ 23-Июн-2013 22:14 ]

  

Скачать .torrent

Размер .torrent файла 18 KB


Размер: 233 MB
Хэш (hash) релиза: 8f7c340c8d6cc4b0004e3c912e0f581c2bbae553

bot

Топик был перенесен в форум Хентай | С цензурой

Перенес Mahmud_1

Хотите добавить комментарий к записи скачать торрент M Okui Last Order Мазохист на десерт

!Обратная связь