Скачать порно через торрент Sweet Mami Сладкая Мами UnionPeer.org бесплатно онлайн HD качество

Скачать новое порно 2015, 2014 новинки через торрент UnionPeer.org

Порно торрент бесплатно ЮнионПир.орг

Если у вас наблюдаются проблемы со скриншотами, переходом по ссылками, скачиванием торрентов - проблемы в блокировщике рекламы AdBlock. #хорошегоДня!


Статистика раздачи
Размер:  667 MB   |    Зарегистрирован:  4 года 4 месяца   |    .torrent скачан:  631 раз   |   
Раздают:  1  
   
Загрузка...
 
Автор Сообщение

LinGr

avatar LinGr





Sweet Mami 3 / あままみ3 / Сладкая Мами 3
Год производства: 2013 г.
Reslese 2013/05/10
Жанр: Animation, Titsjob, Straight, Big Breasts, Bukkake
Серии: 1
Продолжительность: 14:59
Цензура: Есть во всех файлах

Язык: Японский
Озвучка: Оригинальная
Студия: SeismiC
DLLSite

Субтитры: Встроенные неотключаемые (хардсаб)

Описание: Оооо Сладкая мами снова вернулас! На этот раз утебя будет успешный и жарки отпуск на море с красавицоий мами!

Доп. информация: Voice: Anna Uzuki
Качество видео: GameRip
Формат видео: WMV
Видео кодек: Windows Media
Аудио кодек: WMA
Видео: Windows Media Video 9 796x596 30fps 2128kbps [Raw Video 0]
Аудио 1: WMA Pro 44100Hz stereo 440kbps

Video
ID : 1
Format : VC-1
Format profile : MP@HL
Codec ID : WMV3
Codec ID/Info : Windows Media Video 9
Codec ID/Hint : WMV3
Description of the codec : Windows Media Video 9
Duration : 14mn 59s
Bit rate mode : Variable
Bit rate : 1 036 Kbps
Width : 796 pixels
Height : 596 pixels
Display aspect ratio : 4:3
Frame rate : 30.000 fps
Bit depth : 8 bits
Scan type : Progressive
Compression mode : Lossy
Bits/(Pixel*Frame) : 0.073
Stream size : 111 MiB (68%)
Language : Latvian

Audio
ID : 2
Format : WMA
Format profile : Pro
Codec ID : 162
Codec ID/Info : Windows Media Audio
Description of the codec : Windows Media Audio 10 Professional - 440 kbps, 44 kHz, 2 channel 24 bit (A/V) 1-pass CBR
Duration : 14mn 59s
Bit rate mode : Constant
Bit rate : 440 Kbps
Channel(s) : 2 channels
Sampling rate : 44.1 KHz
Bit depth : 24 bits
Stream size : 47.2 MiB (29%)



Sweet Mami 2 / あままみ2 / Сладкая Мами 2
Год производства: 2011 г.
Reslese 2011/11/26
Жанр: Animation, Titsjob, Straight, Big Breasts, Bukkake
Серии: 1
Продолжительность: 9:40
Цензура: Есть во всех файлах

Язык: Японский
Озвучка: Оригинальная
Студия: SeismiC
DLLSite

Субтитры: Встроенные неотключаемые (хардсаб)

Описание:
Сладкая мамi возвращается!Злополучной валшебницоий
остается наедине с табоий в ее сладости заполненные спальне.
Она так одинока с тех пор пока становится волшебной девушкой ...
Ободрить ее дух и тело с своим ч***ом!
Качество видео: GameRip
Формат видео: WMV
Видео кодек: Windows Media
Аудио кодек: WMA
Видео: Windows Media Video 9 800x600 30fps 2598kbps [Raw Video 0]
Аудио 1: WMA Pro 44100Hz stereo 440kbps [Raw Audio 1]

Video
ID : 1
Format : VC-1
Format profile : MP@HL
Codec ID : WMV3
Codec ID/Info : Windows Media Video 9
Codec ID/Hint : WMV3
Description of the codec : Windows Media Video 9
Duration : 9mn 41s
Bit rate mode : Variable
Bit rate : 2 599 Kbps
Width : 800 pixels
Height : 600 pixels
Display aspect ratio : 4:3
Frame rate : 30.000 fps
Bit depth : 8 bits
Scan type : Progressive
Compression mode : Lossy
Bits/(Pixel*Frame) : 0.180
Stream size : 180 MiB (85%)
Language : Latvian

Audio
ID : 2
Format : WMA
Format profile : Pro
Codec ID : 162
Codec ID/Info : Windows Media Audio
Description of the codec : Windows Media Audio 10 Professional - 440 kbps, 44 kHz, 2 channel 24 bit (A/V) 1-pass CBR
Duration : 9mn 40s
Bit rate mode : Constant
Bit rate : 440 Kbps
Channel(s) : 2 channels
Sampling rate : 44.1 KHz
Bit depth : 24 bits
Stream size : 30.5 MiB (14%)



Sweet Mami / あままみ / Сладкая Мами
Год производства: 2011 г.
Reslese 2011/04/24
Жанр: Animation, Titsjob, Straight, Big Breast, Bukkake
Серии: 1
Продолжительность: 9:12
Цензура: Есть во всех файлах

Язык: Японский
Озвучка: Оригинальная
Студия: SeismiC
DLLSite

Субтитры: Встроенные неотключаемые (хардсаб)

Описание:GOOGle translate
Красивые мультипликационном стиле эффекты смешаны с реалистичной 3D движения.

Грудь секс, 3 положения, Сперма внутри влагалища, Bukkake варианты!

Чем дольше она горбы рогатыми она получает.

- "Soul Gem" системы
Сперма в Мами и позор для большей примеси друг с бахвальством ...!
Грязнее она получает, более извращенной похоти ее становится.
Давайте очистить ее периодически с Символ Семени.

- «МАМИ Газа" Система
Прежде чем вы занимаетесь сексом, вы можете выбрать ее уровень наготы.
Вы также можете провернуть ее эксгибициониста путь разврата!
Качество видео: GameRip
Формат видео: WMV
Видео кодек: Windows Media
Аудио кодек: WMA
Видео: Windows Media Video 9 800x600 30fps 2208kbps [Raw Video 0]
Аудио 1: WMA Pro 44100Hz stereo 440kbps [Raw Audio 1]

Video
ID : 1
Format : VC-1
Format profile : MP@HL
Codec ID : WMV3
Codec ID/Info : Windows Media Video 9
Codec ID/Hint : WMV3
Description of the codec : Windows Media Video 9
Duration : 9mn 12s
Bit rate mode : Variable
Bit rate : 2 209 Kbps
Width : 800 pixels
Height : 600 pixels
Display aspect ratio : 4:3
Frame rate : 30.000 fps
Bit depth : 8 bits
Scan type : Progressive
Compression mode : Lossy
Bits/(Pixel*Frame) : 0.153
Stream size : 146 MiB (83%)
Language : Latvian

Audio
ID : 2
Format : WMA
Format profile : Pro
Codec ID : 162
Codec ID/Info : Windows Media Audio
Description of the codec : Windows Media Audio 10 Professional - 440 kbps, 44 kHz, 2 channel 24 bit (A/V) 1-pass CBR
Duration : 9mn 12s
Bit rate mode : Constant
Bit rate : 440 Kbps
Channel(s) : 2 channels
Sampling rate : 44.1 KHz
Bit depth : 24 bits
Stream size : 29.0 MiB (16%)





Трекер:  [ 23-Июн-2013 22:14 ]

  

Скачать .torrent

Размер .torrent файла 13 KB


Размер: 667 MB
Хэш (hash) релиза: c9ad838a8697f6570c4628895059f298be9b1888

Торренты, похожие на Sweet Mami Сладкая Мами скачать торрент

Форум Название Автор Размер S L Добавлен
Хентайные и эротические игры ·· Sweet Mami / Сладкая Мами (Seismic) [cen] [2011, Animation, Titsjob, Straight, Big Breast, Bukkake] [jap] Galfimbul 996908561951 MB 0 0 1408692687

10:31

22-Авг-14

Хентай | С цензурой ·· Sweet Mami 3 / Сладкая Мами 3 (1) [cen] [2013 г., Animation, Titsjob, Straight, Big Breasts, GameRip] [jap] LinGr 170527279163 MB 0 0 1371566637

17:43

18-Июн-13

bot

Топик был перенесен в форум Хентай | С цензурой

Перенес Mahmud_1

Хотите добавить комментарий к записи скачать торрент Sweet Mami Сладкая Мами

!Обратная связь