Скачать через торрент Единение сердец Kokoro Connect бесплатно Аниме Все серии на русском torrent

Если у вас наблюдаются проблемы со скриншотами, переходом по ссылками, скачиванием торрентов - проблемы в блокировщике рекламы AdBlock. #хорошегоДня!


Статистика раздачи
Размер:  11.21 GB   |    Зарегистрирован:  4 года 3 месяца   |    .torrent скачан:  21 раз   |   
Раздают:  1  
   
Загрузка...
 
Автор Сообщение

Polarnik

avatar Polarnik



Год выпуска: 2012
Страна: Япония
Жанр: комедия, романтика, драма, школа
Продолжительность: 13 эп., 25 мин.
Перевод:

русские субтитры от GMC (полные/вспомогательные)
редакторы: Jellyfish, Nerevar, Pat-Rica, Schum, переводчики: St_Ranger, Zarco, оформление: nismo
Режиссер: Онума Син
Студия:
Описание:
Они не друзья детства и не знают друг друга десяток лет. Нет, трое девчонок и двое парней встретились уже в старшей школе Ямабоси, где познакомились и подружились. Никто из них не сумел найти клуб по душе, так и родилось «Общество молодежной культуры». Президентом стала веселая и общительная Иори, ее замом – строгая и рассудительная Химэко, а замкнула женский коллектив симпатичная модница Юй. С парнями тоже все ясно: Тайти – всеобщий помощник, а Ёсифуми – местный «мачо», что не стесняется признаваться Юй в любви по два раза на дню. А вот беднягу Тайти умом тянет к Химэко, сердцем – к Иори, сам же он решить ничего не может. Да, понимание себя и людей – один из навыков, который необходимо познать на пути во взрослую жизнь. Но нельзя ли тут как-то помочь?

Помощь нежданно пришла от некоего существа – бога, демона или пришельца, что до поры скрылся под маской учителя Гото. Члены клуба вдруг стали... ненадолго меняться телами, причем обмен происходил непредсказуемо, попарно или втроем. Можно себе представить, что вынесли ребята, внезапно оказываясь в самых щекотливых ситуациях… Но через несколько дней такого безумного свинга они вдруг осознали, что начали лучше понимать друг друга и могут без проблем изобразить любого из компании. Все верно – в чужом теле недоступны память и знания, но достаточно вызвать любой образ, и станет ясно, что на самом деле чувствует человек. Теперь герои знают друг о друге почти все – осталось только понять, чем кончится странный эксперимент!
© Hollow, World Art
Информационные ссылки: AniDB || World Art || MAL
Качество: BDRip
Энкод: Winter - RG Pantheon
Тип видео: без хардсаба
Формат: mkv
Видео: x264 (Hi10p), 1280x720, ~2400 Kbps, 23,976 fps
Аудио JAP: Vorbis, 48000Hz, ~256 Kbps, 2ch
Аудио RUS 1-5: AC3, 48000Hz, 192 Kbps, 2ch
одноголосая (муж.) от OSLIKt (AniDub) [1-13]
двухголосая (муж./жен.) от Scrap & NASTR (Timecraft & ARRU) [1-13]
двухголосая (муж./жен.) от Z9IbLeG & Lizaveta (SHIZA) [1-6]
многоголосая от DJATOM & Eladiel & Zendos (Anilibria & Opendub)
многоголосая от Gezell Studio [1-13]

в озвучках на 6 серию присутствуют фрагменты без перевода
01. A Story That Had Already Begun Before Anyone Realized It
02. Some Fascinating Humans
03. Jobber and Low Blow
04. Twin Feelings
05. A Confession and Death......
06. A Story That Continued Before Anyone Realized It
07. Falling Apart
08. And Then There Were None
09. Can`t Stop Can`t Stop Can`t Stop
10. Putting into Words
11. A Story That Began As We Realized It
12. Into a Snowy City
13. As Long as the Five of Us Are Together
Общее
Уникальный идентификатор : 227480759743749956542001658838068543030 (0xAB233360D43F3536BC6587753E08BE36)
Полное имя : W:\ANIMATION\720p\Kokoro Connect [BD] [720p]\[Winter] Kokoro Connect 01 [BDrip 1280x720 x264 Vorbis].mkv
Формат : Matroska
Версия формата : Version 2
Размер файла : 491 Мбайт
Продолжительность : 23 м.
Режим общего битрейта : Переменный
Общий поток : 2905 Кбит/сек
Дата кодирования : UTC 2012-11-25 19:29:33
Программа кодирования : mkvmerge v2.9.8 (''''C''''est le bon'''') built on Aug 13 2009 12:49:06
Библиотека кодирования : libebml v0.7.7 + libmatroska v0.8.1

Видео
Идентификатор : 1
Формат : AVC
Формат/Информация : Advanced Video Codec
Профиль формата : High 10@L4.1
Параметр CABAC формата : Да
Параметр ReFrames формата : 9 кадров
Идентификатор кодека : V_MPEG4/ISO/AVC
Продолжительность : 23 м.
Битрейт : 2591 Кбит/сек
Ширина : 1280 пикселей
Высота : 720 пикселей
Соотношение сторон : 16:9
Режим частоты кадров : Постоянный
Частота кадров : 23,976 кадра/сек
Цветовое пространство : YUV
Субдискретизация насыщенности : 4:2:0
Битовая глубина : 10 бит
Тип развёртки : Прогрессивная
Бит/(Пиксели*Кадры) : 0.117
Размер потока : 438 Мбайт (89%)
Библиотека кодирования : x264 core 129 r2230 1cffe9f
Настройки программы : cabac=1 / ref=9 / deblock=1:-2:-2 / analyse=0x3:0x133 / me=umh / subme=9 / psy=1 / psy_rd=0.90:0.00 / mixed_ref=1 / me_range=24 / chroma_me=1 / trellis=2 / 8x8dct=1 / cqm=0 / deadzone=21,11 / fast_pskip=1 / chroma_qp_offset=-2 / threads=6 / lookahead_threads=1 / sliced_threads=0 / nr=0 / decimate=0 / interlaced=0 / bluray_compat=0 / constrained_intra=0 / bframes=8 / b_pyramid=2 / b_adapt=2 / b_bias=0 / direct=1 / weightb=1 / open_gop=0 / weightp=2 / keyint=250 / keyint_min=23 / scenecut=40 / intra_refresh=0 / rc=crf / mbtree=0 / crf=15.6 / qcomp=0.70 / qpmin=9 / qpmax=40 / qpstep=4 / ip_ratio=1.40 / pb_ratio=1.30 / aq=1:0.90
Default : Нет
Forced : Нет

Аудио
Идентификатор : 2
Формат : Vorbis
Параметр Floor формата : 1
Идентификатор кодека : A_VORBIS
Продолжительность : 23 м.
Вид битрейта : Переменный
Битрейт : 256 Кбит/сек
Каналы : 2 канала
Частота : 48,0 КГц
Метод сжатия : С потерями
Размер потока : 43,2 Мбайт (9%)
Библиотека кодирования : libVorbis (Schaufenugget) (20101101 (Schaufenugget))
Язык : Japanese
Default : Да
Forced : Нет


Данный релиз предназначен для просмотра на ПК. Воспроизведение на иных проигрывателях не гарантируется. Для просмотра рекомендуется Media Player Classic с установленным пакетом кодеков K-Lite.

Данный релиз содержит 10-битное видео (Hi10p). Для корректного воспроизведения обязательно используйте кодеки, поддерживающие 10-битное видео.

Данный релиз предназначен для просмотра с внешними субтитрами и внешними звуковыми дорожками.

[b]Для просмотра с внешней звуковой дорожкой нужно:
перекинуть файлы .mka из папки "RUS Sound [<автор(ы) озвучки>]" в одну папку с видео и переключить звуковую дорожку в плеере при просмотре. Как это сделать в разных плеерах подробно описано здесь.
Для просмотра с субтитрами нужно:
перекинуть файлы .ass из папки "RUS Subtitles [<автор(ы) перевода>]" в одну папку с видео - плеер подгрузит их автоматически при открытии видео.


Трекер:  [ 22-Июн-2013 11:32 ]

  

Скачать .torrent

Размер .torrent файла 71 KB


Размер: 11.21 GB
Хэш (hash) релиза: ff100ff65b3ebd1297fb1495c088c246e88ad798
Подписка на обновления:

Еще никто не оставлял запись к записи скачать торрент Единение сердец Kokoro Connect . Будь первым!

!Обратная связь