Скачать порно через торрент Private Specials 72 - Italian Putanas UnionPeer.org бесплатно онлайн HD качество

Скачать новое порно 2015, 2014 новинки через торрент UnionPeer.org

Порно торрент бесплатно ЮнионПир.орг

Если у вас наблюдаются проблемы со скриншотами, переходом по ссылками, скачиванием торрентов - проблемы в блокировщике рекламы AdBlock. #хорошегоДня!


Статистика раздачи
Размер:  1.72 GB   |    Зарегистрирован:  4 года 2 месяца   |    .torrent скачан:  269 раз   |   
Раздают:  1  
   
Загрузка...
 
Автор Сообщение

LinGr

avatar LinGr



Private Specials 72 - Italian Putanas
Год производства: 2013 г.
Жанр: Anal,Gonzo,Bigtits,MILF,DP
Продолжительность: 2h 27mn
Режиссер: Omar Galanti
Студия: Private

В ролях: Omar Galanti, Asia Morante, Mila Ramos, Lara DeSantis, Jonella Dantes, Lisa Torri

Format : AVI
Format/Info : Audio Video Interleave
Format profile : OpenDML
File size : 1.72 GiB
Duration : 2h 27mn
Overall bit rate : 1 674 Kbps
Movie name : Italian Putanas
Writing application : Lavf53.21.0
Original source form/Name : SPE72NTSC_SCN

Video
ID : 0
Format : MPEG-4 Visual
Format profile : Advanced Simple@L5
Format settings, BVOP : 2
Format settings, QPel : No
Format settings, GMC : No warppoints
Format settings, Matrix : Default (H.263)
Muxing mode : Packed bitstream
Codec ID : XVID
Codec ID/Hint : XviD
Duration : 2h 27mn
Bit rate : 1 470 Kbps
Width : 720 pixels
Height : 404 pixels
Display aspect ratio : 16:9
Frame rate : 29.970 fps
Color space : YUV
Chroma subsampling : 4:2:0
Bit depth : 8 bits
Scan type : Progressive
Compression mode : Lossy
Bits/(Pixel*Frame) : 0.169
Stream size : 1.51 GiB (88%)
Writing library : XviD 1.2.1 (UTC 2008-12-04)

Audio
ID : 1
Format : AC-3
Format/Info : Audio Coding 3
Mode extension : CM (complete main)
Format settings, Endianness : Big
Codec ID : 2000
Duration : 2h 27mn
Bit rate mode : Constant
Bit rate : 192 Kbps
Channel(s) : 2 channels
Channel positions : Front: L R
Sampling rate : 48.0 KHz
Bit depth : 16 bits
Compression mode : Lossy
Stream size : 202 MiB (11%)
Alignment : Aligned on interleaves
Interleave, duration : 32 ms (0.96 video frame)


Трекер:  [ 21-Июн-2013 16:37 ]

  

Скачать .torrent

Размер .torrent файла 17 KB


Размер: 1.72 GB
Хэш (hash) релиза: 7d302128b1ef60e63b00a84d3fbbdcebf12a16df

bot

Топик был перенесен в форум Гонзо-фильмы

Перенес Mahmud_1

Хотите добавить комментарий к записи скачать торрент Private Specials 72 - Italian Putanas

!Обратная связь