Скачать порно через торрент Namanaka Hyaku Percent! Наманака 100%! UnionPeer.org бесплатно онлайн HD качество

Скачать новое порно 2015, 2014 новинки через торрент UnionPeer.org

Порно торрент бесплатно ЮнионПир.орг

Если у вас наблюдаются проблемы со скриншотами, переходом по ссылками, скачиванием торрентов - проблемы в блокировщике рекламы AdBlock. #хорошегоДня!


Статистика раздачи
Размер:  943 MB   |    Зарегистрирован:  4 года 1 месяц   |    .torrent скачан:  544 раза   |   
Раздают:  2  
   
Загрузка...
 
Автор Сообщение

LinGr

avatar LinGr


Namanaka Hyaku Percent! / 生膣ひゃくぱぁせんと!
Наманака 100%! / Сотня мокрых девиц!

Год производства: 2012 г.
Издатель: Queen Bee
Жанр: Big Tits, Virgin, Oral, Titfuck, Anal, Enema, Swimsuit, Bukkake
Серии: ep.1-3 of 3
Продолжительность: ~24 мин
Цензура: Есть во всех файлах
Озвучка: Оригинальная
Язык: Японский
Субтитры: Внешние SRT
Язык: Русский (isco93)
Субтитры: Внешние ASS/SSA
Язык: Английский (SubDESU-H) (ep.1-2)
Описание:Нашему герою повезло в двойне, он встречается сразу с двумя сестрами. Но одна не знает что он спит с другой, естественно сам он пытается всё это скрыть и виду не подаёт. Младшая сестрёнка любит переодеваться в разные костюмы, когда старшая предпочитает фетишь, секс игрушки и прочий разврат. Девушки всяческий флиртуют с ним и занимаются любовью где не попадя, не исключением стал даже лифт. В котором молодого парня изрядно поимели :3 Чему он не сказано рад. После того как девушки узнают жестокую правду начинается конкуренция за право быть первой и любимой. Хотя к счастью они находят компромисс и во второй серии поделят его, бинзапилой хи-хи шутка. Конечно же нет, решив что вдвоём они могут доставить в разы больше удовольствия и прикладывают для этого все усилия для того чтоб нашему герою было хорошо. Тем временем паренёк летает в облаках в окружении двух грудастых сестрёнок. Ну а дальше можно только догадываться, продолжение их сексуальных похождений. © Ксения Нефёдова
Качество видео: DVDRip
Формат видео: MP4
Видео кодек: H.264/AVC
Аудио кодек: AAC
Видео:
ep.1: MPEG4 (H264) | 704x396 (16:9) | 29,970 fps | 1 508 Kbps | 8 bit
ep.2: MPEG4 (H264) | 704x396 (16:9) | 28,082 fps | 1 971 Kbps | 8 bit
ep.3: MPEG4 (H264) | 720x480 (16:9) | 25,019 fps | 1 462 Kbps | 8 bit
Аудио:
ep.1: JAP | AAC | 48000Hz | 2 ch | 192 Kbps
ep.2: JAP | AAC | 48000Hz | 2 ch | 222 Kbps
ep.3: JAP | AAC | 48000Hz | 2 ch | 192 Kbps
Информационные ссылки: MAL | World Art | AniDB

Общее
Полное имя : D:\Torrent Download\Namanaka Hyaku Percent!\Namanaka Hyaku Percent! - 01.mp4
Формат : MPEG-4
Профиль формата : Base Media / Version 2
Идентификатор кодека : mp42
Размер файла : 290 Мбайт
Продолжительность : 23 м.
Режим общего битрейта : Переменный
Общий поток : 1702 Кбит/сек
Дата кодирования : UTC 2012-11-23 13:35:29
Дата пометки : UTC 2012-11-23 13:35:29

Видео
Идентификатор : 1
Формат : AVC
Формат/Информация : Advanced Video Codec
Профиль формата : High@L3.2
Параметр CABAC формата : Да
Параметр ReFrames формата : 5 кадров
Идентификатор кодека : avc1
Идентификатор кодека/Информация : Advanced Video Coding
Продолжительность : 23 м.
Битрейт : 1508 Кбит/сек
Максимальный битрейт : 10,3 Мбит/сек
Ширина : 704 пикселя
Высота : 396 пикселей
Соотношение сторон : 16:9
Режим частоты кадров : Постоянный
Частота кадров : 29,970 кадров/сек
Цветовое пространство : YUV
Субдискретизация насыщенности : 4:2:0
Битовая глубина : 8 бит
Тип развёртки : Прогрессивная
Бит/(Пиксели*Кадры) : 0.180
Размер потока : 257 Мбайт (89%)
Заголовок : Video
Библиотека кодирования : x264 core 123 r2184+681M 5d72658
Настройки программы : cabac=1 / ref=5 / deblock=1:-2:-2 / analyse=0x3:0x113 / me=umh / subme=7 / psy=1 / fade_compensate=0.00 / psy_rd=1.00:0.00 / mixed_ref=0 / me_range=32 / chroma_me=1 / trellis=1 / 8x8dct=1 / cqm=0 / deadzone=21,11 / fast_pskip=1 / chroma_qp_offset=-2 / threads=1 / sliced_threads=0 / nr=0 / decimate=1 / interlaced=0 / bluray_compat=0 / constrained_intra=0 / fgo=0 / bframes=3 / b_pyramid=2 / b_adapt=2 / b_bias=0 / direct=3 / weightb=0 / open_gop=0 / weightp=2 / keyint=250 / keyint_min=25 / scenecut=40 / intra_refresh=0 / rc_lookahead=40 / rc=crf / mbtree=1 / crf=16.0000 / qcomp=0.60 / qpmin=0 / qpmax=69 / qpstep=4 / ip_ratio=1.40 / aq=1:1.00
Дата кодирования : UTC 2012-11-23 13:34:58
Дата пометки : UTC 2012-11-23 13:35:56

Аудио
Идентификатор : 2
Формат : AAC
Формат/Информация : Advanced Audio Codec
Профиль формата : LC
Идентификатор кодека : 40
Продолжительность : 23 м.
Вид битрейта : Переменный
Битрейт : 192 Кбит/сек
Максимальный битрейт : 210 Кбит/сек
Каналы : 2 канала
Расположение каналов : Front: L R
Частота : 48,0 КГц
Метод сжатия : С потерями
Задержка видео : 67 мс.
Размер потока : 32,3 Мбайт (11%)
Заголовок : Audio
Дата кодирования : UTC 2012-11-23 13:35:52
Дата пометки : UTC 2012-11-23 13:35:56
Общее
Полное имя : D:\Torrent Download\Namanaka Hyaku Percent!\Namanaka Hyaku Percent! - 02.mp4
Формат : MPEG-4
Профиль формата : Base Media / Version 2
Идентификатор кодека : mp42
Размер файла : 372 Мбайт
Продолжительность : 23 м.
Режим общего битрейта : Переменный
Общий поток : 2197 Кбит/сек
Дата кодирования : UTC 2013-03-22 17:17:40
Дата пометки : UTC 2013-03-22 17:17:40

Видео
Идентификатор : 1
Формат : AVC
Формат/Информация : Advanced Video Codec
Профиль формата : High@L3.2
Параметр CABAC формата : Да
Параметр ReFrames формата : 4 кадра
Идентификатор кодека : avc1
Идентификатор кодека/Информация : Advanced Video Coding
Продолжительность : 23 м.
Битрейт : 1971 Кбит/сек
Максимальный битрейт : 13,1 Мбит/сек
Ширина : 704 пикселя
Высота : 396 пикселей
Соотношение сторон : 16:9
Режим частоты кадров : Переменный
Частота кадров : 28,082 кадров/сек
Частота кадров в оригинале : 29,970 кадров/сек
Минимальная частота кадров : 14,985 кадров/сек
Максимальная частота кадров : 119,880 кадров/сек
Цветовое пространство : YUV
Субдискретизация насыщенности : 4:2:0
Битовая глубина : 8 бит
Тип развёртки : Прогрессивная
Бит/(Пиксели*Кадры) : 0.252
Размер потока : 333 Мбайт (90%)
Заголовок : nhml@GPAC0.5.1-DEV-rev4280+44M git-0f0e3eb
Библиотека кодирования : x264 core 130 r2273 b3065e6
Настройки программы : cabac=1 / ref=3 / deblock=1:-2:-2 / analyse=0x3:0x113 / me=umh / subme=7 / psy=1 / psy_rd=1.00:0.00 / mixed_ref=1 / me_range=32 / chroma_me=1 / trellis=1 / 8x8dct=1 / cqm=0 / deadzone=21,11 / fast_pskip=1 / chroma_qp_offset=-2 / threads=12 / lookahead_threads=2 / sliced_threads=0 / nr=0 / decimate=1 / interlaced=0 / bluray_compat=0 / constrained_intra=0 / bframes=3 / b_pyramid=2 / b_adapt=2 / b_bias=0 / direct=3 / weightb=0 / open_gop=0 / weightp=2 / keyint=250 / keyint_min=25 / scenecut=40 / intra_refresh=0 / rc_lookahead=40 / rc=crf / mbtree=1 / crf=14.0 / qcomp=0.60 / qpmin=1 / qpmax=69 / qpstep=3 / ip_ratio=1.40 / aq=1:1.00
Дата кодирования : UTC 2013-03-22 17:17:40
Дата пометки : UTC 2013-03-22 17:17:50

Аудио
Идентификатор : 2
Формат : AAC
Формат/Информация : Advanced Audio Codec
Профиль формата : LC
Идентификатор кодека : 40
Продолжительность : 23 м.
Вид битрейта : Переменный
Битрейт : 222 Кбит/сек
Максимальный битрейт : 243 Кбит/сек
Каналы : 2 канала
Расположение каналов : Front: L R
Частота : 48,0 КГц
Метод сжатия : С потерями
Размер потока : 37,5 Мбайт (10%)
Дата кодирования : UTC 2013-03-22 16:56:33
Дата пометки : UTC 2013-03-22 17:17:50
Общее
Полное имя : D:\Torrent Download\Namanaka Hyaku Percent!\Namanaka Hyaku Percent! - 03.mp4
Формат : MPEG-4
Профиль формата : Base Media / Version 2
Идентификатор кодека : mp42
Размер файла : 276 Мбайт
Продолжительность : 22 м.
Режим общего битрейта : Переменный
Общий поток : 1689 Кбит/сек
Дата кодирования : UTC 2013-06-07 11:56:56
Дата пометки : UTC 2013-06-07 11:56:56

Видео
Идентификатор : 1
Формат : AVC
Формат/Информация : Advanced Video Codec
Профиль формата : High@L3.2
Параметр CABAC формата : Да
Параметр ReFrames формата : 4 кадра
Идентификатор кодека : avc1
Идентификатор кодека/Информация : Advanced Video Coding
Продолжительность : 22 м.
Битрейт : 1462 Кбит/сек
Номинальный битрейт : 1750 Кбит/сек
Максимальный битрейт : 10,1 Мбит/сек
Ширина : 720 пикселей
Высота : 480 пикселей
Соотношение сторон : 16:9
Соотношение сторон в оригинале : 16:9
Режим частоты кадров : Переменный
Частота кадров : 25,019 кадров/сек
Частота кадров в оригинале : 29,970 кадров/сек
Минимальная частота кадров : 14,985 кадров/сек
Максимальная частота кадров : 119,880 кадров/сек
Стандарт вещания : NTSC
Цветовое пространство : YUV
Субдискретизация насыщенности : 4:2:0
Битовая глубина : 8 бит
Тип развёртки : Прогрессивная
Бит/(Пиксели*Кадры) : 0.169
Размер потока : 239 Мбайт (87%)
Заголовок : nhml@GPAC0.5.1-DEV-rev4280+44M git-0f0e3eb
Библиотека кодирования : x264 core 130 r2273 b3065e6
Настройки программы : cabac=1 / ref=3 / deblock=1:-2:-2 / analyse=0x3:0x113 / me=umh / subme=9 / psy=1 / psy_rd=1.00:0.00 / mixed_ref=1 / me_range=48 / chroma_me=1 / trellis=2 / 8x8dct=1 / cqm=0 / deadzone=21,11 / fast_pskip=1 / chroma_qp_offset=-2 / threads=12 / lookahead_threads=1 / sliced_threads=0 / nr=0 / decimate=1 / interlaced=0 / bluray_compat=0 / constrained_intra=0 / bframes=3 / b_pyramid=2 / b_adapt=2 / b_bias=0 / direct=3 / weightb=1 / open_gop=0 / weightp=1 / keyint=250 / keyint_min=25 / scenecut=40 / intra_refresh=0 / rc_lookahead=40 / rc=2pass / mbtree=1 / bitrate=1750 / ratetol=1.0 / qcomp=0.60 / qpmin=0 / qpmax=69 / qpstep=4 / cplxblur=20.0 / qblur=0.5 / ip_ratio=1.40 / aq=1:1.50
Дата кодирования : UTC 2013-06-07 11:56:56
Дата пометки : UTC 2013-06-07 11:57:03

Аудио
Идентификатор : 2
Формат : AAC
Формат/Информация : Advanced Audio Codec
Профиль формата : LC
Идентификатор кодека : 40
Продолжительность : 22 м.
Вид битрейта : Переменный
Битрейт : 222 Кбит/сек
Максимальный битрейт : 246 Кбит/сек
Каналы : 2 канала
Расположение каналов : Front: L R
Частота : 48,0 КГц
Метод сжатия : С потерями
Размер потока : 36,2 Мбайт (13%)
Дата кодирования : UTC 2013-06-07 11:56:07
Дата пометки : UTC 2013-06-07 11:57:03



Трекер:  [ 23-Июн-2013 22:16 ]

  

Скачать .torrent

Размер .torrent файла 19 KB


Размер: 943 MB
Хэш (hash) релиза: 85dc3e8e6a1005036e884088a653bc1b97456b15

bot

Топик был перенесен в форум Хентай | С цензурой

Перенес Mahmud_1

Хотите добавить комментарий к записи скачать торрент Namanaka Hyaku Percent! Наманака 100%!

!Обратная связь