Скачать порно через торрент Sweet Mami 3 Сладкая Мами 3 UnionPeer.org бесплатно онлайн HD качество

Скачать новое порно 2015, 2014 новинки через торрент UnionPeer.org

Порно торрент бесплатно ЮнионПир.орг

Если у вас наблюдаются проблемы со скриншотами, переходом по ссылками, скачиванием торрентов - проблемы в блокировщике рекламы AdBlock. #хорошегоДня!


Статистика раздачи
Размер:  163 MB   |    Зарегистрирован:  4 года 5 месяцев   |    .torrent скачан:  202 раза   |   
Раздают:  1  
   
Загрузка...
 
Автор Сообщение

LinGr

avatar LinGr


Sweet Mami 3 / あままみ3 / Сладкая Мами 3
Год производства: 2013 г.
Reslese 2013/05/10
Жанр: Animation, Titsjob, Straight, Big Breasts
Серии: 1
Продолжительность: 14:59
Цензура: Есть во всех файлах

Язык: Японский
Озвучка: Оригинальная
Студия: SeismiC
DLLSite

Субтитры: Встроенные неотключаемые (хардсаб)

Описание: Оооо Сладкая мами снова вернулас! На этот раз У каво будет отпуск, тому будет успешный и жарки отпуск на море с красавицоий мами!

Доп. информация: Voice: Anna Uzuki
Качество видео: GameRip
Формат видео: WMV
Видео кодек: Windows Media
Аудио кодек: WMA
Видео: Windows Media Video 9 796x596 30fps 1035kbps [Raw Video 0]
Аудио 1: WMA Pro 44100Hz stereo 440kbps [Raw Audio 1]

Video
ID : 1
Format : VC-1
Format profile : MP@HL
Codec ID : WMV3
Codec ID/Info : Windows Media Video 9
Codec ID/Hint : WMV3
Description of the codec : Windows Media Video 9
Duration : 14mn 59s
Bit rate mode : Variable
Bit rate : 1 036 Kbps
Width : 796 pixels
Height : 596 pixels
Display aspect ratio : 4:3
Frame rate : 30.000 fps
Bit depth : 8 bits
Scan type : Progressive
Compression mode : Lossy
Bits/(Pixel*Frame) : 0.073
Stream size : 111 MiB (68%)
Language : Latvian

Audio
ID : 2
Format : WMA
Format profile : Pro
Codec ID : 162
Codec ID/Info : Windows Media Audio
Description of the codec : Windows Media Audio 10 Professional - 440 kbps, 44 kHz, 2 channel 24 bit (A/V) 1-pass CBR
Duration : 14mn 59s
Bit rate mode : Constant
Bit rate : 440 Kbps
Channel(s) : 2 channels
Sampling rate : 44.1 KHz
Bit depth : 24 bits
Stream size : 47.2 MiB (29%)


Трекер:  [ 18-Июн-2013 22:06 ]

  

Скачать .torrent

Размер .torrent файла 13 KB


Размер: 163 MB
Хэш (hash) релиза: 315540477660f49e2a7f18768b9c2190ca5f9175

Торренты, похожие на Sweet Mami 3 Сладкая Мами 3 скачать торрент

Форум Название Автор Размер S L Добавлен
Хентай | С цензурой ·· Sweet Mami / Сладкая Мами (1-3 of 3) [cen] [2013-2011] г., Animation, Titsjob, Straight, Big Breasts, Big tits, Swimsuit, Creampie GameRip] [jap] LinGr 699157233667 MB 0 0 1371934834

00:00

23-Июн-13

bot

Топик был перенесен в форум Хентай | С цензурой

Перенес Mahmud_1

Хотите добавить комментарий к записи скачать торрент Sweet Mami 3 Сладкая Мами 3

!Обратная связь