Скачать порно через торрент Jack Attack Джек наступает UnionPeer.org бесплатно онлайн HD качество

Скачать новое порно 2015, 2014 новинки через торрент UnionPeer.org

Порно торрент бесплатно ЮнионПир.орг

Если у вас наблюдаются проблемы со скриншотами, переходом по ссылками, скачиванием торрентов - проблемы в блокировщике рекламы AdBlock. #хорошегоДня!


Статистика раздачи
Размер:  5.47 GB   |    Зарегистрирован:  4 года 5 месяцев   |    .torrent скачан:  264 раза   |   
Раздают:  1  
   
Загрузка...
 
Автор Сообщение

LinGr

avatar LinGr



Jack Attack / Джек наступает


Год производства: 2013 г.
Страна: USA
Жанр: Gonzo
Продолжительность: 02:34:46

Режиссер: Robby D
Студия: Digital Playground

Язык: Английский

В ролях: Riley Steele, Bridgette B., Christy Mack, Rikki Six, Natalia Starr

Описание: Jack's back!

These girls will do anything once a camera is on them!

Доп. информация: http://www.adultdvdempire.com/1657189/jack-attack-dvd-blu-ray-combo-porn-movies.html

Релиз группы: EViLVAULT

Тип HD видео: 720p
Качество видео: BDRip
Формат видео: MKV
Видео кодек: H.264/AVC
Аудио кодек: AC3
Видео: 1280x720 (1.78:1), 23,976 fps, ~4607 Kbps avg, 0.208 bit/pixel
Аудио: 48 kHz, 6 ch, 448 kbps

Общее
Уникальный идентификатор                 : 182319901044103016046813627019109449977 (0x89298922D6DC85D3B88DA47972A5C0F9)
Полное имя                               : Jack.Attack.XXX.720p.BluRay.x264-EViLVAULT.mkv
Формат                                   : Matroska
Версия формата                           : Version 4 / Version 2
Размер файла                             : 5,47 Гбайт
Продолжительность                        : 2 ч. 34 м.
Общий поток                              : 5056 Кбит/сек
Дата кодирования                         : UTC 2013-06-13 15:29:04
Программа кодирования                    : mkvmerge v6.0.0 ('Coming Up For Air') built on Jan 20 2013 09:52:00
Библиотека кодирования                   : libebml v1.3.0 + libmatroska v1.4.0

Видео
Идентификатор                            : 1
Формат                                   : AVC
Формат/Информация                        : Advanced Video Codec
Профиль формата                          : High@L4.1
Параметр CABAC формата                   : Да
Параметр ReFrames формата                : 5 кадров
Идентификатор кодека                     : V_MPEG4/ISO/AVC
Продолжительность                        : 2 ч. 34 м.
Битрейт                                  : 4607 Кбит/сек
Ширина                                   : 1280 пикселей
Высота                                   : 720 пикселей
Соотношение сторон                       : 16:9
Режим частоты кадров                     : Постоянный
Частота кадров                           : 23,976 кадра/сек
Цветовое пространство                    : YUV
Субдискретизация насыщенности            : 4:2:0
Битовая глубина                          : 8 бит
Тип развёртки                            : Прогрессивная
Бит/(Пиксели*Кадры)                      : 0.208
Размер потока                            : 4,87 Гбайт (89%)
Библиотека кодирования                   : x264 core 133 r2334 a3ac64b
Настройки программы                      : cabac=1 / ref=5 / deblock=1:0:0 / analyse=0x3:0x133 / me=umh / subme=7 / psy=1 / psy_rd=1.00:0.00 / mixed_ref=1 / me_range=16 / chroma_me=1 / trellis=1 / 8x8dct=1 / cqm=0 / deadzone=21,11 / fast_pskip=0 / chroma_qp_offset=-2 / threads=12 / lookahead_threads=2 / sliced_threads=0 / nr=0 / decimate=1 / interlaced=0 / bluray_compat=0 / constrained_intra=0 / bframes=3 / b_pyramid=2 / b_adapt=2 / b_bias=0 / direct=3 / weightb=1 / open_gop=0 / weightp=2 / keyint=250 / keyint_min=23 / scenecut=40 / intra_refresh=0 / rc_lookahead=50 / rc=2pass / mbtree=1 / bitrate=4607 / ratetol=1.0 / qcomp=0.60 / qpmin=0 / qpmax=69 / qpstep=4 / cplxblur=20.0 / qblur=0.5 / ip_ratio=1.40 / aq=1:1.00
Язык                                     : English
Default                                  : Да
Forced                                   : Нет

Аудио
Идентификатор                            : 2
Формат                                   : AC-3
Формат/Информация                        : Audio Coding 3
Расширение режима                        : CM (complete main)
Параметр Endianness формата              : Big
Идентификатор кодека                     : A_AC3
Продолжительность                        : 2 ч. 34 м.
Вид битрейта                             : Постоянный
Битрейт                                  : 448 Кбит/сек
Каналы                                   : 6 каналов
Расположение каналов                     : Front: L C R, Side: L R, LFE
Частота                                  : 48,0 КГц
Битовая глубина                          : 16 бит
Метод сжатия                             : С потерями
Размер потока                            : 496 Мбайт (9%)
Язык                                     : English
Default                                  : Да
Forced                                   : Нет



Трекер:  [ 16-Июн-2013 08:30 ]

  

Скачать .torrent

Размер .torrent файла 28 KB


Размер: 5.47 GB
Хэш (hash) релиза: 7d25143856bae9d94b42a916ca10f4277f64ecfe

Торренты, похожие на Jack Attack Джек наступает скачать торрент

Форум Название Автор Размер S L Добавлен
Гонзо-фильмы ·· Jack Attack / Джек наступает (Robby D, Digital Playground) [2013 г., Gonzo, 1080p, BDRip] (Riley Steele, Bridgette B., Christy Mack, Rikki Six, Natalia Starr) LinGr 105661368749.84 GB 0 0 1371286139

11:48

15-Июн-13

Порно фильмы без сюжета ·· Jack Attack / Джек наступает (Robby D, Digital Playground) [2013 г., Gonzo, DVDRip-AVC] (Riley Steele, Bridgette B., Christy Mack, Rikki Six, Natalia Starr) Galfimbul 19713331251.84 GB 0 0 1371027563

11:59

12-Июн-13

Гонзо-фильмы ·· Jack Attack #6 / Джек Наступает #6 (Robby D, Digital Playground) [2013 г., Gonzo, 1080p, BDRip] Galfimbul 105606915349.84 GB 0 0 1387875546

11:59

24-Дек-13

Порно фильмы с сюжетом ·· Jack Attack 6 / Джек Наступает 6 (Robby D., Digital Playground) [2013 г., Feature, Gonzo, High Definition, 720p, BDRip] Galfimbul 58639072675.46 GB 0 0 1387837370

01:22

24-Дек-13

Гонзо-фильмы ·· Jack Attack 6 / Джек Наступает 6 (Robby D., Digital Playground) [2013 г., Gonzo, Widescreen, VOD] [Split Scenes] LinGr 17185724441.6 GB 0 0 1386879094

23:11

12-Дек-13

Порно фильмы с сюжетом ·· Jack Attack # 5 / Джек Наступает #5 (Robby D, Digital Playground) [2013 г., Feature, 1080p, BDRip] Galfimbul 93878611078.74 GB 0 0 1386321367

12:16

6-Дек-13

Порно фильмы с сюжетом ·· Jack Attack 5 / Джек Наступает 5 (Robby D, Digital Playground) [2013 г., Feature, DVDRip] LinGr 14577214901.36 GB 0 0 1383668442

19:20

5-Ноя-13

Порно фильмы с сюжетом ·· Jack Attack 5 / Джек Наступает 5 (Robby D, Digital Playground) [2013 г., Feature] LinGr 14168884201.32 GB 1 1 1383234068

18:41

31-Окт-13

Порно фильмы с сюжетом ·· Jack Attack #4 / Джек наступает #4 (Robby D, Digital Playground) [2013 г., Feature, Hardcore, All Sex, 720p, BDRip] LinGr 46929845164.37 GB 0 0 1381044647

10:30

6-Окт-13

Порно фильмы с сюжетом ·· Jack Attack #4 / Джек Наступает #4 (Robby D, Digital Playground) [2013 г., Feature, Hardcore, All Sex, DVDRip, 400p] LinGr 18616443071.73 GB 0 0 1380649268

20:41

1-Окт-13

Порно фильмы с сюжетом ·· Jack Attack 4 / Джек Наступает 4 (Robby D, Digital Playground) [2013 г., Feature] LinGr 15405203821.43 GB 0 0 1380289804

16:50

27-Сен-13

Гонзо-фильмы ·· Jack Attack 3 / Джек Наступает 3 (Robby D, Digital Playground) [2013 г., All Sex, DVDRip] (BiBi Jones, Ash Hollywood, Adrianna Luna, Mischa Brooks) LinGr 15851802241.48 GB 0 0 1378309289

18:41

4-Сен-13

Порно фильмы с сюжетом ·· Jack Attack 2 / Джек наступает 2 (Robby D, Digital Playground) [2013 г., Feature, DVDRip] (Lexi Belle, Bailey Blue, Capri Cavalli, Selena Rose) LinGr 15832983421.47 GB 0 0 1375787731

14:15

6-Авг-13

bot

Топик был перенесен в форум Гонзо-фильмы

Перенес Mahmud_1

Хотите добавить комментарий к записи скачать торрент Jack Attack Джек наступает

!Обратная связь