Скачать порно через торрент Mesu Nochi Torare Ночная бабочка UnionPeer.org бесплатно онлайн HD качество

Скачать новое порно 2015, 2014 новинки через торрент UnionPeer.org

Порно торрент бесплатно ЮнионПир.орг

Если у вас наблюдаются проблемы со скриншотами, переходом по ссылками, скачиванием торрентов - проблемы в блокировщике рекламы AdBlock. #хорошегоДня!


Статистика раздачи
Размер:  1.2 GB   |    Зарегистрирован:  4 года 2 месяца   |    .torrent скачан:  85 раз   |   
Раздают:  1  
   
Загрузка...
 
Автор Сообщение

LinGr

avatar LinGr



メスのちトラレ | Mesu Nochi Torare | Ночная бабочка
Год выпуска: 2013
Страна: Япония
Жанр: big tits, forcing, rape, school, virgins, x-ray
Продолжительность: >1 эп. 20 мин.
Субтитры: Отсутствуют
Цензура: Присутствует
Студия: Mary Jane
Описание:
No synopsis has been added for this series yet.
Информационные ссылки: AniDB || MAL || World Art || ХентайМаг
Исходник: DVD-5
Видео: MPEG2 | NTSC | 16x9 | 720x480 | 8000 Kbps
Аудио JAP: AC-3 | 48000Hz | 224 Kbps | 2ch

Список эпизодов:
01. Volume 1

General
Complete name : L:\VIDEO_TS\VTS_01_1.VOB
Format : MPEG-PS
File size : 1 024 MiB
Duration : 1mn 51s
Overall bit rate : 77.3 Mbps

Video
ID : 224 (0xE0)
Format : MPEG Video
Format version : Version 2
Format profile : Main@Main
Format settings, BVOP : Yes
Format settings, Matrix : Default
Duration : 1mn 51s
Bit rate : 75.5 Mbps
Width : 720 pixels
Height : 480 pixels
Display aspect ratio : 16:9
Frame rate : 29.970 fps
Standard : NTSC
Color space : YUV
Chroma subsampling : 4:2:0
Bit depth : 8 bits
Compression mode : Lossy
Bits/(Pixel*Frame) : 7.292
Stream size : 1 000 MiB (98%)

Audio
ID : 189 (0xBD)-128 (0x80)
Format : AC-3
Format/Info : Audio Coding 3
Mode extension : CM (complete main)
Muxing mode : DVD-Video
Duration : 1mn 51s
Bit rate mode : Constant
Bit rate : 224 Kbps
Channel(s) : 2 channels
Channel positions : Front: L R
Sampling rate : 48.0 KHz
Bit depth : 16 bits
Compression mode : Lossy
Stream size : 2.96 MiB (0%)


Трекер:  [ 16-Июн-2013 10:17 ]

  

Скачать .torrent

Размер .torrent файла 12 KB


Размер: 1.2 GB
Хэш (hash) релиза: affd60a3189d32e4590560053e757300de144b37

bot

Топик был перенесен в форум Хентай | С цензурой

Перенес Mahmud_1

Хотите добавить комментарий к записи скачать торрент Mesu Nochi Torare Ночная бабочка

!Обратная связь