Скачать порно через торрент Car Wash Girls Девочки с Автомойки UnionPeer.org бесплатно онлайн HD качество

Скачать новое порно 2015, 2014 новинки через торрент UnionPeer.org

Порно торрент бесплатно ЮнионПир.орг

Если у вас наблюдаются проблемы со скриншотами, переходом по ссылками, скачиванием торрентов - проблемы в блокировщике рекламы AdBlock. #хорошегоДня!


Статистика раздачи
Размер:  15.98 GB   |    Зарегистрирован:  4 года 2 месяца   |    .torrent скачан:  100 раз   |   
Раздают:  1  
   
Загрузка...
 
Автор Сообщение

LinGr

avatar LinGr




Car Wash Girls / Девочки с Автомойки

Год производства: 2010 г.
Страна: USA
Жанр: Gonzo, Straight
Продолжительность: 02:32:00

Режиссер: Mason
Студия: Elegant Angel

Язык: Английский
В ролях: Alexis Texas • Eva Angelina • Isis Love • Nikki Sexx • Bobbi Starr • Charley Chase • Rachel Starr • Chayse Evans

Описание: Elegant Angel proudly presents 'Car Wash Girls' directed by the award winning Sam No. Watch this all star cast get drenched in soap suds as they clean cars in beautiful locations. Including the epic tease fans have come to expect from Elegant Angel as well as passionate hardcore sex. Do not miss!

Меню: Нет
Доп. материалы и бонусы: Behind the scenes

Тип HD видео: 1080p
Качество видео: BDRemux
Формат видео: MKV
Аудио кодек: AC3
Видео: VC1, 1920 x 1080, 14.1 Mbps, 29.97 fps
Аудио: AC3, 256 Kbps, 48.0 kHz, 2 channels

General
Unique ID : 226151825165404526689946076047488004874 (0xAA2341D847208920A0AFCE6DE1EB330A)
Complete name : D:\Torrents\PL\CAR_WASH_GIRLS_BDRemux\Car Wash Girls.mkv
Format : Matroska
Format version : Version 2
File size : 15.2 GiB
Duration : 2h 32mn
Overall bit rate : 14.3 Mbps
Encoded date : UTC 2013-06-02 08:22:37
Writing application : mkvmerge v5.0.1 ('Es ist Sommer') built on Nov 6 2011 16:23:40
Writing library : libebml v1.2.2 + libmatroska v1.3.0

Video
ID : 1
Format : VC-1
Format profile : Advanced@L3
Codec ID : V_MS/VFW/FOURCC / WVC1
Codec ID/Hint : Microsoft
Duration : 2h 32mn
Bit rate : 13.7 Mbps
Width : 1 920 pixels
Height : 1 080 pixels
Display aspect ratio : 16:9
Frame rate mode : Constant
Frame rate : 23.976 fps
Chroma subsampling : 4:2:0
Bit depth : 8 bits
Scan type : Progressive
Compression mode : Lossy
Bits/(Pixel*Frame) : 0.276
Stream size : 14.6 GiB (96%)
Default : Yes
Forced : No

Audio
ID : 2
Format : AC-3
Format/Info : Audio Coding 3
Mode extension : CM (complete main)
Format settings, Endianness : Big
Codec ID : A_AC3
Duration : 2h 32mn
Bit rate mode : Constant
Bit rate : 256 Kbps
Channel(s) : 2 channels
Channel positions : Front: L R
Sampling rate : 48.0 KHz
Bit depth : 16 bits
Compression mode : Lossy
Stream size : 279 MiB (2%)
Language : English
Default : Yes
Forced : Yes

General
Unique ID : 183291054408851588412848166304277339922 (0x89E492B1991C2E469CE97196BC581F12)
Complete name : D:\Torrents\PL\CAR_WASH_GIRLS_BDRemux\Car Wash Girls BTS.mkv
Format : Matroska
Format version : Version 2
File size : 822 MiB
Duration : 8mn 40s
Overall bit rate : 13.3 Mbps
Encoded date : UTC 2013-06-05 20:13:06
Writing application : mkvmerge v5.0.1 ('Es ist Sommer') built on Nov 6 2011 16:23:40
Writing library : libebml v1.2.2 + libmatroska v1.3.0

Video
ID : 1
Format : VC-1
Format profile : Advanced@L3
Codec ID : V_MS/VFW/FOURCC / WVC1
Codec ID/Hint : Microsoft
Duration : 8mn 40s
Bit rate : 12.7 Mbps
Width : 1 920 pixels
Height : 1 080 pixels
Display aspect ratio : 16:9
Frame rate mode : Constant
Frame rate : 23.976 fps
Chroma subsampling : 4:2:0
Bit depth : 8 bits
Scan type : Progressive
Compression mode : Lossy
Bits/(Pixel*Frame) : 0.256
Stream size : 790 MiB (96%)
Default : Yes
Forced : No

Audio
ID : 2
Format : AC-3
Format/Info : Audio Coding 3
Mode extension : CM (complete main)
Format settings, Endianness : Big
Codec ID : A_AC3
Duration : 8mn 40s
Bit rate mode : Constant
Bit rate : 256 Kbps
Channel(s) : 2 channels
Channel positions : Front: L R
Sampling rate : 48.0 KHz
Bit depth : 16 bits
Compression mode : Lossy
Stream size : 15.9 MiB (2%)
Default : Yes
Forced : No


Трекер:  [ 14-Июн-2013 07:22 ]

  

Скачать .torrent

Размер .torrent файла 40 KB


Размер: 15.98 GB
Хэш (hash) релиза: 697e9a68e1456d073086d0215672342bc58419ed

Торренты, похожие на Car Wash Girls Девочки с Автомойки скачать торрент

Форум Название Автор Размер S L Добавлен
Порно фильмы без сюжета ·· Car Wash Girls / Девочки с Автомойки (Mason, Elegant Angel) [2010, Gonzo, Straight, 1080p, Blu-Ray] LinGr 2179857619820.3 GB 0 0 1369601039

23:43

26-Май-13

bot

Топик был перенесен в форум Гонзо-фильмы

Перенес Mahmud_1

Хотите добавить комментарий к записи скачать торрент Car Wash Girls Девочки с Автомойки

!Обратная связь