Скачать порно через торрент Tsuma no Haha Sayuri Мать жены Саюри UnionPeer.org бесплатно онлайн HD качество

Скачать новое порно 2015, 2014 новинки через торрент UnionPeer.org

Порно торрент бесплатно ЮнионПир.орг

Если у вас наблюдаются проблемы со скриншотами, переходом по ссылками, скачиванием торрентов - проблемы в блокировщике рекламы AdBlock. #хорошегоДня!


Статистика раздачи
Размер:  2.68 GB   |    Зарегистрирован:  4 года 4 месяца   |    .torrent скачан:  131 раз   |   
Раздают:  1  
   
Загрузка...
 
Автор Сообщение

LinGr

avatar LinGr





妻の母さゆり | Tsuma no Haha Sayuri | Мать жены Саюри
Год выпуска: 2011
Страна: Япония
Жанр: big tits, group, harem, housewives, oral, straight, titsjob, x-ray, yuri
Продолжительность: >2 эп. по 30 мин.
Субтитры: Отсутствуют
Цензура: Присутствует
Режиссёр: Yoneda Mitsuhiro
Студия: Digital Works | Y.O.U.C.
Описание:
After Kusakabe Akihiko's wife cheats on him, she eventually runs away. Upon learning of this, Sayuri, Akihiko's mother-in-law, comes to him to apologise, convinced that this is all happening because the blood of prostitutes runs in their veins. When she was young, Sayuri had been tricked by a man and became pregnant. In order to support herself and her daughter, she worked as a call-girl.

While attempting to comfort the distraught Sayuri, Akihiko becomes extremely conscious of her bewitching attributes, and his long unreleased sexual desires start to flare. This does not go unnoticed by Sayuri...
Информационные ссылки: AniDB || MAL || World Art || ХентайМаг
Исходник: DVD-5
Видео: MPEG2 | NTSC | 16x9 | 720x480 | 7800 Kbps
Аудио JAP: AC-3 | 48000Hz | 384 Kbps | 2ch

Список эпизодов:
01. Volume 1
02. Volume 2
General
Complete name : L:\VIDEO_TS\VTS_01_1.VOB
Format : MPEG-PS
File size : 1 024 MiB
Duration : 17mn 12s
Overall bit rate : 8 323 Kbps

Video
ID : 224 (0xE0)
Format : MPEG Video
Format version : Version 2
Format profile : Main@Main
Format settings, BVOP : Yes
Format settings, Matrix : Custom
Duration : 17mn 12s
Bit rate : 7 800 Kbps
Width : 720 pixels
Height : 480 pixels
Display aspect ratio : 16:9
Frame rate : 29.970 fps
Standard : NTSC
Color space : YUV
Chroma subsampling : 4:2:0
Bit depth : 8 bits
Scan type : Interlaced
Scan order : Top Field First
Compression mode : Lossy
Bits/(Pixel*Frame) : 0.753
Stream size : 956 MiB (93%)

Audio
ID : 189 (0xBD)-128 (0x80)
Format : AC-3
Format/Info : Audio Coding 3
Mode extension : CM (complete main)
Muxing mode : DVD-Video
Duration : 17mn 11s
Bit rate mode : Constant
Bit rate : 384 Kbps
Channel(s) : 2 channels
Channel positions : Front: L R
Sampling rate : 48.0 KHz
Bit depth : 16 bits
Compression mode : Lossy
Stream size : 47.2 MiB (5%)





Исходник: DVD-5
Видео: MPEG2 | NTSC | 16x9 | 720x480 | 8000 Kbps
Аудио JAP: AC-3 | 48000Hz | 128 Kbps | 2ch

General
Complete name : L:\VIDEO_TS\VTS_01_1.VOB
Format : MPEG-PS
File size : 1 016 MiB
Duration : 31s 98ms
Overall bit rate mode : Variable
Overall bit rate : 274 Mbps
Writing library : encoded by TMPGEnc 4.0 XPress Version. 4.7.4.299

Video
ID : 224 (0xE0)
Format : MPEG Video
Format version : Version 2
Format profile : Main@Main
Format settings, BVOP : Yes
Format settings, Matrix : Custom
Format settings, GOP : M=3, N=16
Duration : 31s 98ms
Bit rate mode : Variable
Bit rate : 268 Mbps
Maximum bit rate : 8 000 Kbps
Width : 720 pixels
Height : 480 pixels
Display aspect ratio : 16:9
Frame rate : 29.970 fps
Standard : NTSC
Color space : YUV
Chroma subsampling : 4:2:0
Bit depth : 8 bits
Scan type : Interlaced
Scan order : Top Field First
Compression mode : Lossy
Bits/(Pixel*Frame) : 25.914
Stream size : 995 MiB (98%)
Writing library : TMPGEnc XPress 4.7.4.299
Color primaries : SMPTE 170M
Transfer characteristics : SMPTE 170M
Matrix coefficients : SMPTE 170M

Audio
ID : 189 (0xBD)-128 (0x80)
Format : AC-3
Format/Info : Audio Coding 3
Mode extension : CM (complete main)
Muxing mode : DVD-Video
Duration : 31s 72ms
Bit rate mode : Constant
Bit rate : 128 Kbps
Channel(s) : 2 channels
Channel positions : Front: L R
Sampling rate : 48.0 KHz
Bit depth : 16 bits
Compression mode : Lossy
Stream size : 486 KiB (0%)





Трекер:  [ 13-Июн-2013 22:39 ]

  

Скачать .torrent

Размер .torrent файла 14 KB


Размер: 2.68 GB
Хэш (hash) релиза: 0f6e66afe6f1500091d49327bde81bc50290de5b

bot

Топик был перенесен в форум Хентай | С цензурой

Перенес Mahmud_1

Хотите добавить комментарий к записи скачать торрент Tsuma no Haha Sayuri Мать жены Саюри

!Обратная связь