Скачать порно через торрент Osananajimi to Doukyuusei Друг детства и одноклассник UnionPeer.org бесплатно онлайн HD качество

Скачать новое порно 2015, 2014 новинки через торрент UnionPeer.org

Порно торрент бесплатно ЮнионПир.орг

Если у вас наблюдаются проблемы со скриншотами, переходом по ссылками, скачиванием торрентов - проблемы в блокировщике рекламы AdBlock. #хорошегоДня!


Статистика раздачи
Размер:  2.99 GB   |    Зарегистрирован:  4 года 4 месяца   |    .torrent скачан:  168 раз   |   
Раздают:  1  
   
Загрузка...
 
Автор Сообщение

LinGr

avatar LinGr





幼なじみと同級生 | Osananajimi to Doukyuusei | Друг детства и одноклассник
Год выпуска: 2008
Страна: Япония
Жанр: bdsm, big tits, chikan, group, mature, molester, oral, rape, students
Продолжительность: >2 эп. по 30 мин.
Субтитры: Отсутствуют
Цензура: Присутствует
Режиссёр: Tomi Tetsuyoshi | Yoneta
Студия: Hot Bear
Описание:
When going back home from school in the usual train line, Miyu's breasts are groped by a train molester, there Shun, her classmate, appears and saves her. He walks her home and teases her about the chikan groping her breasts, plus he also kisses her.

Miyu runs off to home. The truth is however that the train incident was all a cunning trap plotted by Shun. Back home Miyu regrets having her first kiss stolen, then Kou, her childhood friend appears and due to Miyu losing her key takes her to his home. There Miyu confess her first kiss was stolen, but kou tells her they have already kissed so it was not her first kiss...that night Kou takes Miyu's virginity.

Next day at school Shun apologizes and invites her home, Miyu accepts not knowing is a trap. There Shun drugs her and trains her as sex slave...she resists at first, but...After that day when she remembers that she starts masturbating...did she actually like it? Does she want more? What about Kou?
Информационные ссылки: AniDB || MAL || World Art || ХентайМаг
Исходник: DVD-5
Видео: MPEG2 | NTSC | 4x3 | 720x480 | 7700 Kbps
Аудио JAP: AC-3 | 48000Hz | 192 Kbps | 2ch

Список эпизодов:
01. Volume 1
02. Volume 2
General
Complete name : L:\VIDEO_TS\VTS_01_1.VOB
Format : MPEG-PS
File size : 1 024 MiB
Duration : 22mn 34s
Overall bit rate mode : Variable
Overall bit rate : 6 341 Kbps

Video
ID : 224 (0xE0)
Format : MPEG Video
Format version : Version 2
Format profile : Main@Main
Format settings, BVOP : Yes
Format settings, Matrix : Custom
Format settings, GOP : M=3, N=15
Duration : 22mn 34s
Bit rate mode : Variable
Bit rate : 6 023 Kbps
Maximum bit rate : 7 700 Kbps
Width : 720 pixels
Height : 480 pixels
Display aspect ratio : 4:3
Frame rate : 29.970 fps
Standard : NTSC
Color space : YUV
Chroma subsampling : 4:2:0
Bit depth : 8 bits
Scan type : Interlaced
Scan order : Bottom Field First
Compression mode : Lossy
Bits/(Pixel*Frame) : 0.581
Stream size : 972 MiB (95%)
Color primaries : SMPTE 170M
Transfer characteristics : SMPTE 170M
Matrix coefficients : SMPTE 170M

Audio
ID : 189 (0xBD)-128 (0x80)
Format : AC-3
Format/Info : Audio Coding 3
Mode extension : CM (complete main)
Muxing mode : DVD-Video
Duration : 22mn 34s
Bit rate mode : Constant
Bit rate : 192 Kbps
Channel(s) : 2 channels
Channel positions : Front: L R
Sampling rate : 48.0 KHz
Bit depth : 16 bits
Compression mode : Lossy
Stream size : 31.0 MiB (3%)





Исходник: DVD-5
Видео: MPEG2 | NTSC | 4x3 | 720x480 | 9800 Kbps
Аудио JAP: AC-3 | 48000Hz | 192 Kbps | 2ch
General
Complete name : L:\VIDEO_TS\VTS_01_1.VOB
Format : MPEG-PS
File size : 1 024 MiB
Duration : 17mn 24s
Overall bit rate mode : Variable
Overall bit rate : 8 223 Kbps

Video
ID : 224 (0xE0)
Format : MPEG Video
Format version : Version 2
Format profile : Main@Main
Format settings, BVOP : Yes
Format settings, Matrix : Custom
Duration : 17mn 24s
Bit rate mode : Variable
Bit rate : 7 867 Kbps
Maximum bit rate : 9 800 Kbps
Width : 720 pixels
Height : 480 pixels
Display aspect ratio : 4:3
Frame rate : 29.970 fps
Standard : NTSC
Color space : YUV
Chroma subsampling : 4:2:0
Bit depth : 8 bits
Scan type : Interlaced
Scan order : Top Field First
Compression mode : Lossy
Bits/(Pixel*Frame) : 0.760
Stream size : 980 MiB (96%)

Audio
ID : 189 (0xBD)-128 (0x80)
Format : AC-3
Format/Info : Audio Coding 3
Mode extension : CM (complete main)
Muxing mode : DVD-Video
Duration : 17mn 24s
Bit rate mode : Constant
Bit rate : 192 Kbps
Channel(s) : 2 channels
Channel positions : Front: L R
Sampling rate : 48.0 KHz
Bit depth : 16 bits
Compression mode : Lossy
Stream size : 23.9 MiB (2%)





Трекер:  [ 13-Июн-2013 22:39 ]

  

Скачать .torrent

Размер .torrent файла 15 KB


Размер: 2.99 GB
Хэш (hash) релиза: 744d3263aa49f95251536c38219938712b2dd612

Торренты, похожие на Osananajimi to Doukyuusei Друг детства и одноклассник скачать торрент

Форум Название Автор Размер S L Добавлен
Хентай | С цензурой ·· Osananajimi to Doukyuusei / Osananajimi to Dokyusei / Друг детства и одноклассник (HotBear, Yoneta, Tomi Tetsuyoshi) (ep. 1-2 of 2) [cen] [2008 г. Students, Rape, BDSM, Big tits, Oral, Group, Chikan, Molester, Mature, DVDRip] [jap / eng / rus] LinGr 563118452537 MB 0 0 1377203999

23:39

22-Авг-13

bot

Топик был перенесен в форум Хентай | С цензурой

Перенес Mahmud_1

Хотите добавить комментарий к записи скачать торрент Osananajimi to Doukyuusei Друг детства и одноклассник

!Обратная связь