Скачать через торрент музыку Mark Isham - Afterglow - 1998, FLAC бесплатно без регистрации torrent

Если у вас наблюдаются проблемы со скриншотами, переходом по ссылками, скачиванием торрентов - проблемы в блокировщике рекламы AdBlock. #хорошегоДня!


Статистика раздачи
Размер:  312 MB   |    Зарегистрирован:  4 года 5 месяцев   |    .torrent скачан:  33 раза   |   
Раздают:  1  
   
Загрузка...
 
Автор Сообщение

Galfimbul

avatar Galfimbul


♦ Mark Isham - Afterglow ♦

Жанр: Soundtrack, Mainstream Jazz
Композитор: Mark Isham
Год выпуска диска: 1998
Страна-производитель диска: Россия
Аудиокодек: FLAC (*.flac)
Тип рипа: tracks+.cue
Битрейт аудио: lossless
Продолжительность: 01:00:05
Источник: Рип с диска.
Наличие сканов в содержимом раздачи: да

Треклист:

01. After The Glow Has Gone [07:19]
02. Yeses, Noes And In-Betweens [04:59]
03. A Life Suspended [06:36]
04. Hope And Charity [07:13]
05. For Charles [07:24]
06. Yeses And Noes [05:31]
07. Undecided [03:33]
08. The Frenzy [07:09]
09. Afterglow [08:31]
10. Afterglow - Reprise [01:45]
Exact Audio Copy V1.0 beta 3 from 29. August 2011

EAC extraction logfile from 11. June 2013, 14:02

Mark Isham / Afterglow

Used drive : Optiarc DVD RW AD-5200A Adapter: 0 ID: 0

Read mode : SecureUtilize accurate stream : YesDefeat audio cache : YesMake use of C2 pointers : No

Read offset correction : 48Overread into Lead-In and Lead-Out : NoFill up missing offset samples with silence : YesDelete leading and trailing silent blocks : NoNull samples used in CRC calculations : YesUsed interface : Native Win32 interface for Win NT & 2000Gap handling : Appended to previous track

Used output format : User Defined EncoderSelected bitrate : 128 kBit/sQuality : HighAdd ID3 tag : NoCommand line compressor : C:\Program Files\Exact Audio Copy\Flac\flac.exeAdditional command line options : -V -8 -T "Genre=%genre%" -T "Artist=%artist%" -T "Title=%title%" -T "Album=%albumtitle%" -T "Date=%year%" -T "Tracknumber=%tracknr%" -T "Comment=%comment%" %source%

TOC of the extracted CD

Track | Start | Length | Start sector | End sector --------------------------------------------------------- 1 | 0:00.00 | 7:19.70 | 0 | 32994 2 | 7:19.70 | 4:59.02 | 32995 | 55421 3 | 12:18.72 | 6:36.38 | 55422 | 85159 4 | 18:55.35 | 7:13.45 | 85160 | 117679 5 | 26:09.05 | 7:24.65 | 117680 | 151044 6 | 33:33.70 | 5:31.37 | 151045 | 175906 7 | 39:05.32 | 3:33.58 | 175907 | 191939 8 | 42:39.15 | 7:09.37 | 191940 | 224151 9 | 49:48.52 | 8:31.25 | 224152 | 262501 10 | 58:20.02 | 1:45.35 | 262502 | 270411

Track 1

Filename F:\1998.Mark Isham - Afterglow\01. After The Glow Has Gone.wav

Pre-gap length 0:00:02.00

Peak level 98.8 % Extraction speed 2.6 X Track quality 100.0 % Test CRC 514636A4 Copy CRC 514636A4 Accurately ripped (confidence 3) [89A3290C] (AR v1) Copy OK

Track 2

Filename F:\1998.Mark Isham - Afterglow\02. Yeses, Noes And In-Betweens.wav

Pre-gap length 0:00:03.73

Peak level 98.8 % Extraction speed 2.9 X Track quality 100.0 % Test CRC 75A9D7AB Copy CRC 75A9D7AB Accurately ripped (confidence 3) [8FD81D4B] (AR v1) Copy OK

Track 3

Filename F:\1998.Mark Isham - Afterglow\03. A Life Suspended.wav

Pre-gap length 0:00:01.67

Peak level 86.6 % Extraction speed 3.2 X Track quality 100.0 % Test CRC 73090252 Copy CRC 73090252 Accurately ripped (confidence 3) [64F2DE85] (AR v1) Copy OK

Track 4

Filename F:\1998.Mark Isham - Afterglow\04. Hope And Charity.wav

Pre-gap length 0:00:03.58

Peak level 90.4 % Extraction speed 3.3 X Track quality 99.9 % Test CRC FE11DAA9 Copy CRC FE11DAA9 Accurately ripped (confidence 3) [0A10659C] (AR v1) Copy OK

Track 5

Filename F:\1998.Mark Isham - Afterglow\05. For Charles.wav

Pre-gap length 0:00:01.55

Peak level 98.8 % Extraction speed 3.4 X Track quality 99.9 % Test CRC DCB8BD1E Copy CRC DCB8BD1E Accurately ripped (confidence 3) [1E56E43D] (AR v1) Copy OK

Track 6

Filename F:\1998.Mark Isham - Afterglow\06. Yeses And Noes.wav

Pre-gap length 0:00:02.53

Peak level 96.7 % Extraction speed 3.6 X Track quality 100.0 % Test CRC 52A89E1D Copy CRC 52A89E1D Accurately ripped (confidence 3) [9447ED57] (AR v1) Copy OK

Track 7

Filename F:\1998.Mark Isham - Afterglow\07. Undecided.wav

Pre-gap length 0:00:03.25

Peak level 56.5 % Extraction speed 3.0 X Track quality 99.9 % Test CRC 832651FB Copy CRC 832651FB Accurately ripped (confidence 3) [29253D06] (AR v1) Copy OK

Track 8

Filename F:\1998.Mark Isham - Afterglow\08. The Frenzy.wav

Pre-gap length 0:00:02.63

Peak level 94.2 % Extraction speed 3.7 X Track quality 100.0 % Test CRC 6EEBEEAD Copy CRC 6EEBEEAD Accurately ripped (confidence 3) [F4D89EED] (AR v1) Copy OK

Track 9

Filename F:\1998.Mark Isham - Afterglow\09. Afterglow.wav

Peak level 94.4 % Extraction speed 3.8 X Track quality 100.0 % Test CRC 2E9518D6 Copy CRC 2E9518D6 Accurately ripped (confidence 3) [4691718E] (AR v1) Copy OK

Track 10

Filename F:\1998.Mark Isham - Afterglow\10. Afterglow - Reprise.wav

Pre-gap length 0:00:04.22

Peak level 74.9 % Extraction speed 3.1 X Track quality 100.0 % Test CRC 68CC1AB6 Copy CRC 68CC1AB6 Accurately ripped (confidence 3) [CF33BD74] (AR v1) Copy OK

All tracks accurately ripped

No errors occurred

End of status report

==== Log checksum CCC3B2CF3FA5C1F37B129E5D1F4E0948F058E984C8EC88369DBA82EF9549ACD3 ====
REM GENRE JazzREM DATE 1998REM DISCID 740E150AREM COMMENT "ExactAudioCopy v1.0b3"CATALOG 5099706792925PERFORMER "Mark Isham"TITLE "Afterglow"FILE "01. After The Glow Has Gone.wav" WAVE TRACK 01 AUDIO TITLE "After The Glow Has Gone" PERFORMER "Mark Isham" ISRC USSM19605460 INDEX 01 00:00:00 TRACK 02 AUDIO TITLE "Yeses, Noes And In-Betweens" PERFORMER "Mark Isham" ISRC USSM19702264 INDEX 00 07:15:72FILE "02. Yeses, Noes And In-Betweens.wav" WAVE INDEX 01 00:00:00 TRACK 03 AUDIO TITLE "A Life Suspended" PERFORMER "Mark Isham" ISRC USSM19702265 INDEX 00 04:57:10FILE "03. A Life Suspended.wav" WAVE INDEX 01 00:00:00 TRACK 04 AUDIO TITLE "Hope And Charity" PERFORMER "Mark Isham" ISRC USSM19702266 INDEX 00 06:32:55FILE "04. Hope And Charity.wav" WAVE INDEX 01 00:00:00 TRACK 05 AUDIO TITLE "For Charles" PERFORMER "Mark Isham" ISRC USSM19702267 INDEX 00 07:11:65FILE "05. For Charles.wav" WAVE INDEX 01 00:00:00 TRACK 06 AUDIO TITLE "Yeses And Noes" PERFORMER "Mark Isham" ISRC USSM19702268 INDEX 00 07:22:12FILE "06. Yeses And Noes.wav" WAVE INDEX 01 00:00:00 TRACK 07 AUDIO TITLE "Undecided" PERFORMER "Mark Isham" ISRC USSM19702269 INDEX 00 05:28:12FILE "07. Undecided.wav" WAVE INDEX 01 00:00:00 TRACK 08 AUDIO TITLE "The Frenzy" PERFORMER "Mark Isham" ISRC USSM19702270 INDEX 00 03:30:70FILE "08. The Frenzy.wav" WAVE INDEX 01 00:00:00FILE "09. Afterglow.wav" WAVE TRACK 09 AUDIO TITLE "Afterglow" PERFORMER "Mark Isham" ISRC USSM19702271 INDEX 01 00:00:00 TRACK 10 AUDIO TITLE "Afterglow - Reprise" PERFORMER "Mark Isham" ISRC USSM19702272 INDEX 00 08:27:03FILE "10. Afterglow - Reprise.wav" WAVE INDEX 01 00:00:00


Трекер:  [ 12-Июн-2013 16:28 ]

  

Скачать .torrent

Размер .torrent файла 13 KB


Размер: 312 MB
Хэш (hash) релиза: 7111e1eb8a3b1a495c385f19ce75ec7624f47385

bot

Топик был перенесен в форум Саундтреки к фильмам и мультфильмам (lossless)

Перенес Galfimbul

Хотите добавить комментарий к записи скачать торрент Mark Isham - Afterglow - 1998, FLAC

!Обратная связь