Скачать порно через торрент Tsun Tsun Maid wa Ero Ero Desu Моя горничная – цундерэсекси UnionPeer.org бесплатно онлайн HD качество

Скачать новое порно 2015, 2014 новинки через торрент UnionPeer.org

Порно торрент бесплатно ЮнионПир.орг

Если у вас наблюдаются проблемы со скриншотами, переходом по ссылками, скачиванием торрентов - проблемы в блокировщике рекламы AdBlock. #хорошегоДня!


Статистика раздачи
Размер:  1.27 GB   |    Зарегистрирован:  4 года 2 месяца   |    .torrent скачан:  100 раз   |   
Раздают:  1  
   
Загрузка...
 
Автор Сообщение

LinGr

avatar LinGr


ツンツンメイドはエロエロです | Tsun Tsun Maid wa Ero Ero Desu | Моя горничная – цундерэсекси
Год выпуска: 2013
Страна: Япония
Жанр: big tits, maids, straight, virgins, x-ray
Продолжительность: >1 эп. 20 мин.
Субтитры: Отсутствуют
Цензура: Присутствует
Режиссёр: Kotobuki Ranko
Студия: Mary Jane
Описание:
У Макио, как и у многих героев японской аниме индустрии, есть подруга детства, Кириха, которая со временем прибавила не только в росте, но и в прочих, сексуально-возбуждающих юную фантазию заядлого онаниста, местах. Посему, когда спросонья наш герой увидел перед глазами красивую девушку в облике сексапильной служанки, он решил что это часть чудесного сна. Попытка же прижаться к пышным формам привели к окончательному и жёсткому пробуждению необычным приёмом – ёжик в лицо. Реальный ёжик (ручная зверушка Кирихи) – в реальное лицо перевозбуждённого юноши. Поведав страдальцу о том, что с сегодняшнего дня, по просьбе предков Макио, она будет приглядывать за его домом, девушка уже через пару минут обнаруживает, что главный герой сбрасывает «сексуальное напряжение» привычным для себя, ручным способом. Кириха, несмотря на то, что сама ещё девственница, решает стать для Макио проводником в реальный мир сексуальных забав…
Информационные ссылки: AniDB || MAL || World Art || ХентайМаг
Исходник: DVD-5
Видео: MPEG2 | NTSC | 16x9 | 720x480 | 8000 Kbps
Аудио JAP: AC-3 | 48000Hz | 224 Kbps | 2ch
01. I`ll Discipline My Master
General
Complete name : L:\VIDEO_TS\VTS_01_1.VOB
Format : MPEG-PS
File size : 1 024 MiB
Duration : 25s 158ms
Overall bit rate : 341 Mbps

Video
ID : 224 (0xE0)
Format : MPEG Video
Format version : Version 2
Format profile : Main@Main
Format settings, BVOP : Yes
Format settings, Matrix : Default
Format settings, GOP : M=3, N=12
Duration : 25s 158ms
Bit rate : 334 Mbps
Maximum bit rate : 8 000 Kbps
Width : 720 pixels
Height : 480 pixels
Display aspect ratio : 16:9
Frame rate : 29.970 fps
Standard : NTSC
Color space : YUV
Chroma subsampling : 4:2:0
Bit depth : 8 bits
Scan type : Progressive
Compression mode : Lossy
Bits/(Pixel*Frame) : 32.276
Stream size : 1 003 MiB (98%)

Audio
ID : 189 (0xBD)-128 (0x80)
Format : AC-3
Format/Info : Audio Coding 3
Mode extension : CM (complete main)
Muxing mode : DVD-Video
Duration : 25s 24ms
Bit rate mode : Constant
Bit rate : 224 Kbps
Channel(s) : 2 channels
Channel positions : Front: L R
Sampling rate : 48.0 KHz
Bit depth : 16 bits
Compression mode : Lossy
Delay relative to video : -66ms
Stream size : 684 KiB (0%)
Чем воспроизводить образ диска формата *.ISO

Трекер:  [ 13-Июн-2013 22:39 ]

  

Скачать .torrent

Размер .torrent файла 13 KB


Размер: 1.27 GB
Хэш (hash) релиза: 867a8ca6fe818e50424a9d0143bbf72e339b4cb3

Еще никто не оставлял запись к записи скачать торрент Tsun Tsun Maid wa Ero Ero Desu Моя горничная – цундерэсекси . Будь первым!

!Обратная связь