Скачать порно через торрент Anegasaki hot spring горячий источник Anegasaki UnionPeer.org бесплатно онлайн HD качество

Скачать новое порно 2015, 2014 новинки через торрент UnionPeer.org

Порно торрент бесплатно ЮнионПир.орг

Если у вас наблюдаются проблемы со скриншотами, переходом по ссылками, скачиванием торрентов - проблемы в блокировщике рекламы AdBlock. #хорошегоДня!


Статистика раздачи
Размер:  201 MB   |    Зарегистрирован:  4 года 2 месяца   |    .torrent скачан:  368 раз   |   
Раздают:  1  
   
Загрузка...
 
Автор Сообщение

LinGr

avatar LinGr


Anegasaki hot spring / 姉ヶ崎温泉 / горячий источник Anegasaki

Год производства: 2013 г.
Reslese 2013/05/30
Жанр: Uniform, Tit Pies, breast milk , Anal
Серии: 1
Продолжительность: 20:05
Цензура: Есть во всех файлах

Язык: Японский
Озвучка: Оригинальная
Студия: @OZ
DLLsite
Описание:
Я первый раз с ней встретился в семейный ресторане "Dekishizu" она там работала на неполный рабочий день.
Честно говоря, это была любовь с первого взгляда для меня. Я был поглощен ее улыбкаий, жесты, линии тела ... всеm. ...
Наитьи способ гдето тихо поговорить c Anegasaki в течение нескольких дней и узнать, што ана думает про меня.
И есть ли у меня вазможность, ее кудата преглосить???
Ее улыбка, которая казалась немного смутили меня . Это было большое собитьия длья меня. Знакомства с Anegasaki это было действительно весело.
И я решил. ... Што надо c Anegasaki по ближе познакомится. Эта весна длья Anegasaki будет жаркоий......
Качество видео: GameRip
Формат видео: WMV
Видео кодек: Windows Media
Аудио кодек: WMA
Видео: Windows Media Video 9 1280x720 30fps 1200kbps [Raw Video 0]
Аудио 1: WMA 2 44100Hz stereo 192kbps [Raw Audio 1]
Video
ID : 1
Format : VC-1
Format profile : MP@HL
Codec ID : WMV3
Codec ID/Info : Windows Media Video 9
Codec ID/Hint : WMV3
Description of the codec : Windows Media Video 9 - Professional
Duration : 20mn 5s
Bit rate mode : Constant
Bit rate : 1 200 Kbps
Width : 1 280 pixels
Height : 720 pixels
Display aspect ratio : 16:9
Frame rate : 30.000 fps
Bit depth : 8 bits
Scan type : Progressive
Compression mode : Lossy
Bits/(Pixel*Frame) : 0.043
Stream size : 172 MiB (86%)
Language : Latvian

Audio
ID : 2
Format : WMA
Format version : Version 2
Codec ID : 161
Codec ID/Info : Windows Media Audio
Description of the codec : Windows Media Audio 9.2 - 192 kbps, 44 kHz, stereo 1-pass CBR
Duration : 20mn 5s
Bit rate mode : Constant
Bit rate : 192 Kbps
Channel(s) : 2 channels
Sampling rate : 44.1 KHz
Bit depth : 16 bits
Stream size : 27.6 MiB (14%)
Приятного просмотра! Пожалуйста, поддержите раздачу!
Спасибо за Ваши будующие комментарии!

Трекер:  [ 13-Июн-2013 22:40 ]

  

Скачать .torrent

Размер .torrent файла 16 KB


Размер: 201 MB
Хэш (hash) релиза: 03e16a1513bcc84593a00e8b05944e52926218e9

Еще никто не оставлял запись к записи скачать торрент Anegasaki hot spring горячий источник Anegasaki . Будь первым!

!Обратная связь