Скачать порно через торрент Tokubetsu Jugyou 1&2 Private Sessions 1&2 UnionPeer.org бесплатно онлайн HD качество

Скачать новое порно 2015, 2014 новинки через торрент UnionPeer.org

Порно торрент бесплатно ЮнионПир.орг

Если у вас наблюдаются проблемы со скриншотами, переходом по ссылками, скачиванием торрентов - проблемы в блокировщике рекламы AdBlock. #хорошегоДня!


Статистика раздачи
Размер:  3.66 GB   |    Зарегистрирован:  4 года 5 месяцев   |    .torrent скачан:  181 раз   |   
Раздают:  1  
   
Загрузка...
 
Автор Сообщение

LinGr

avatar LinGr


Tokubetsu Jugyou 1&2 | Private Sessions 1&2 | Частные уроки 1&2


Год выпуска: 2001 | 2003
Страна: Япония
Жанр: bdsm, blowjob, female students, rape, toys, virgins
Продолжительность: >4 эп. по 30 мин.
Субтитры: Отсутствуют
Цензура: Присутствует
Режиссёр: Yanase Hiroyuki | Itoga Shintarou
Студия: Digital Works | Y.O.U.C.
Professor Saki used to be a normal woman... until her heart and mind were twisted by her sadistic boyfriend Mikami. Fired from his last teaching job for assaulting one of his students, he forces Saki into getting him a teaching position at her all-girl college. With beautiful buxom ladies everywhere, Mikami's dark desires quickly target his new female students for some very special private sessions - and this time he plans on making Saki help him. Will Saki's misguided love for Mikami drive her to help him trap innocent women in his demented little world?
The College of Sacred Maidens is bubbling over with sexy young ladies perfectly suited for Tomoya's lusts. So, when he crosses paths with a new student professor for the college, he's not about to let his chance pass by - he wastes no time drugging the guy, and taking his place. Now this dangerous sex fiend is surrounded by beautiful, buxom women, and he's already got a lot of "assignments" planned for them.

The innocent cheerleader Yumi, the fiery swim girl Seira, and even Asuka, the ravishing actress. One by one, he'll collect them all as his pets, eager sex slaves who'll fill his every burning desire. But the girls won't take it lying down, so to speak. What will it take for Tomoya to twist his way into the deepest parts of their hearts, minds, and luscious, energetic bodies?


Исходник: DVD-5
Видео: MPEG2 | NTSC | 16x9 | 720x480 | 7800 Kbps
Аудио JAP: AC-3 | 48000Hz | 384 Kbps | 2ch
01. Volume 1
02. Volume 2
01. Volume 1
02. Volume 2
General
Complete name : L:\VIDEO_TS\VTS_01_1.VOB
Format : MPEG-PS
File size : 1 024 MiB
Duration : 1mn 57s
Overall bit rate : 73.2 Mbps

Video
ID : 224 (0xE0)
Format : MPEG Video
Format version : Version 2
Format profile : Main@Main
Format settings, BVOP : Yes
Format settings, Matrix : Custom
Duration : 1mn 57s
Bit rate : 71.4 Mbps
Maximum bit rate : 7 800 Kbps
Width : 720 pixels
Height : 480 pixels
Display aspect ratio : 16:9
Frame rate : 29.970 fps
Standard : NTSC
Color space : YUV
Chroma subsampling : 4:2:0
Bit depth : 8 bits
Scan type : Interlaced
Scan order : Top Field First
Compression mode : Lossy
Bits/(Pixel*Frame) : 6.892
Stream size : 998 MiB (97%)

Audio
ID : 189 (0xBD)-128 (0x80)
Format : AC-3
Format/Info : Audio Coding 3
Mode extension : CM (complete main)
Muxing mode : DVD-Video
Duration : 1mn 56s
Bit rate mode : Constant
Bit rate : 384 Kbps
Channel(s) : 2 channels
Channel positions : Front: L R
Sampling rate : 48.0 KHz
Bit depth : 16 bits
Compression mode : Lossy
Stream size : 5.36 MiB (1%)
Чем воспроизводить образ диска формата *.ISO

Трекер:  [ 13-Июн-2013 22:40 ]

  

Скачать .torrent

Размер .torrent файла 19 KB


Размер: 3.66 GB
Хэш (hash) релиза: 2f0ad99e0592542d26fa8364e44106f702300901

Еще никто не оставлял запись к записи скачать торрент Tokubetsu Jugyou 1&2 Private Sessions 1&2 . Будь первым!

!Обратная связь