Скачать порно через торрент My Mai: Koakuma na A Cup My Imouto: Koakuma na A Cup UnionPeer.org бесплатно онлайн HD качество

Скачать новое порно 2015, 2014 новинки через торрент UnionPeer.org

Порно торрент бесплатно ЮнионПир.орг

Если у вас наблюдаются проблемы со скриншотами, переходом по ссылками, скачиванием торрентов - проблемы в блокировщике рекламы AdBlock. #хорошегоДня!


Статистика раздачи
Размер:  2.5 GB   |    Зарегистрирован:  4 года 5 месяцев   |    .torrent скачан:  220 раз   |   
Раздают:  1  
   
Загрузка...
 
Автор Сообщение

LinGr

avatar LinGr


My妹~小悪魔なAカップ~ | My Mai: Koakuma na A Cup | My Imouto: Koakuma na A Cup | У моей сестрёнки ну очень скромные сиськи
Год выпуска: 2012
Страна: Япония
Жанр: dfc, incest, masturbation, small breast
Продолжительность: >2 эп. по 15 мин.
Субтитры: Отсутствуют
Цензура: Присутствует
Режиссёр: Kotobuki Ranko
Студия: Mary Jane
Описание:
Once again, the peaceful morning is shattered by a diatribe delivered by a sister to her brother. This is a daily occurrence at the Utsumi household, and the fact that his relationship with his step-sister, Miyu, isn't improving is a cause of anguish for Mitsuru. While she may behave like an angel in the presence of their parents, when they are alone, she's a pure devil.

One day, Mitsuru discovers that Miyu has a complex regarding her bust-size. He unwisely brings it up and she blows up at him. While attempting to restrain the raging Miyu, the two lose their balance and fall. Staring into Miyu's face up close, Mitsuru finds himself drawn by her cute features, the warmth of her body, the peculiar scent of a young girl...
Информационные ссылки: AniDB || MAL || World Art || ХентайМаг
Исходник: DVD-5
Видео: MPEG2 | NTSC | 16x9 | 720x480 | 8500 Kbps
Аудио JAP: AC-3 | 48000Hz | 224 Kbps | 2ch
01. Hate You, You Stupid Brother!?
02. I`m All Over My Big Brother
General
Complete name : L:\VIDEO_TS\VTS_01_1.VOB
Format : MPEG-PS
File size : 1 024 MiB
Duration : 47s 481ms
Overall bit rate : 181 Mbps

Video
ID : 224 (0xE0)
Format : MPEG Video
Format version : Version 2
Format profile : Main@Main
Format settings, BVOP : Yes
Format settings, Matrix : Default
Format settings, GOP : M=3, N=15
Duration : 47s 481ms
Bit rate : 177 Mbps
Maximum bit rate : 8 500 Kbps
Width : 720 pixels
Height : 480 pixels
Display aspect ratio : 16:9
Frame rate : 29.970 fps
Standard : NTSC
Color space : YUV
Chroma subsampling : 4:2:0
Bit depth : 8 bits
Scan type : Progressive
Compression mode : Lossy
Bits/(Pixel*Frame) : 17.095
Stream size : 1 002 MiB (98%)

Audio
ID : 189 (0xBD)-128 (0x80)
Format : AC-3
Format/Info : Audio Coding 3
Mode extension : CM (complete main)
Muxing mode : DVD-Video
Duration : 47s 424ms
Bit rate mode : Constant
Bit rate : 224 Kbps
Channel(s) : 2 channels
Channel positions : Front: L R
Sampling rate : 48.0 KHz
Bit depth : 16 bits
Compression mode : Lossy
Delay relative to video : -66ms
Stream size : 1.27 MiB (0%)
Исходник: DVD-5
Видео: MPEG2 | NTSC | 16x9 | 720x480 | 7800 Kbps
Аудио JAP: AC-3 | 48000Hz | 224 Kbps | 2ch
General
Complete name : L:\VIDEO_TS\VTS_01_1.VOB
Format : MPEG-PS
File size : 1 024 MiB
Duration : 1mn 0s
Overall bit rate : 143 Mbps

Video
ID : 224 (0xE0)
Format : MPEG Video
Format version : Version 2
Format profile : Main@Main
Format settings, BVOP : Yes
Format settings, Matrix : Default
Format settings, GOP : M=3, N=12
Duration : 1mn 0s
Bit rate : 140 Mbps
Maximum bit rate : 7 800 Kbps
Width : 720 pixels
Height : 480 pixels
Display aspect ratio : 16:9
Frame rate : 29.970 fps
Standard : NTSC
Color space : YUV
Chroma subsampling : 4:2:0
Bit depth : 8 bits
Scan type : Progressive
Compression mode : Lossy
Bits/(Pixel*Frame) : 13.505
Stream size : 1 002 MiB (98%)

Audio
ID : 189 (0xBD)-128 (0x80)
Format : AC-3
Format/Info : Audio Coding 3
Mode extension : CM (complete main)
Muxing mode : DVD-Video
Duration : 59s 968ms
Bit rate mode : Constant
Bit rate : 224 Kbps
Channel(s) : 2 channels
Channel positions : Front: L R
Sampling rate : 48.0 KHz
Bit depth : 16 bits
Compression mode : Lossy
Delay relative to video : -66ms
Stream size : 1.60 MiB (0%)
Чем воспроизводить образ диска формата *.ISO

Трекер:  [ 13-Июн-2013 22:40 ]

  

Скачать .torrent

Размер .torrent файла 13 KB


Размер: 2.5 GB
Хэш (hash) релиза: 75ec7eaf57c97da0c345d425cf56ff2c49434caa

Торренты, похожие на My Mai: Koakuma na A Cup My Imouto: Koakuma na A Cup скачать торрент

Форум Название Автор Размер S L Добавлен
Хентай, порно и эротические мультфильмы ·· My Mai: Koakuma na A Cup / My Imouto: Koakuma na A Cup / У моей сестренки ну очень скромные сиськи (mary-jane) (ep.1) [cen] [2012 г., Small Breast, Incest, Lolicon, Masturbation, DVDRip] [jap/eng/rus] Galfimbul 384342138367 MB 0 0 1343973660

09:01

3-Авг-12

Еще никто не оставлял запись к записи скачать торрент My Mai: Koakuma na A Cup My Imouto: Koakuma na A Cup . Будь первым!

!Обратная связь