Скачать порно через торрент Furyou ni Hamerarete Jusei Suru Kyonyuu Okaa-san The Animation Неудавшееся оплодотворение грудастой мамаши UnionPeer.org бесплатно онлайн HD качество

Скачать новое порно 2015, 2014 новинки через торрент UnionPeer.org

Порно торрент бесплатно ЮнионПир.орг

Если у вас наблюдаются проблемы со скриншотами, переходом по ссылками, скачиванием торрентов - проблемы в блокировщике рекламы AdBlock. #хорошегоДня!


Статистика раздачи
Размер:  375 MB   |    Зарегистрирован:  4 года 5 месяцев   |    .torrent скачан:  274 раза   |   
Раздают:  1  
   
Загрузка...
 
Автор Сообщение

LinGr

avatar LinGr


Furyou ni Hamerarete Jusei Suru Kyonyuu Okaa-san The Animation
Неудавшееся оплодотворение грудастой мамаши
不良にハメられて受精する巨乳お母さん The Animation

Год производства: 2013 г.
Жанр: Big tits, Blowjob, Titsjob, Incest, Straight, Housewives,
Серии: ep. 1
Продолжительность: 24 мин 16 сек
Цензура: Есть во всех файлах

Язык: Японский
Озвучка: Оригинальная
Режиссер: Araki Hideki
Автор оригинала: Erectlip
Студия: Pink Pineapple

Описание: История про мать одиночку которая растит сына. Она с трудом исполняет свои обязанности пока у неё не появляется ухажор который даёт ей всё, что она хочет. И вскоре наша героиня просто навсего забывает, что у неё есть сын.

Качество видео: DVDRip
Формат видео: MP4
Видео кодек: H.264/AVC
Аудио кодек: AAC
Видео: 720x480, 16:9, 28.585 fps, 2 159 Kbps, 8 bit
Аудио 1: JAP, 48.0 KHz, 192 Kbps, 2 channels
General
Complete name : E:\downloads\hentai\Furyou ni Hamerarete Jusei Suru Kyonyuu Okaa-san The Animation ep.1 .mp4
Format : MPEG-4
Format profile : Base Media / Version 2
Codec ID : mp42
File size : 375 MiB
Duration : 24mn 16s
Overall bit rate mode : Variable
Overall bit rate : 2 159 Kbps
Encoded date : UTC 2013-06-01 05:55:05
Tagged date : UTC 2013-06-01 05:55:05

Video
ID : 1
Format : AVC
Format/Info : Advanced Video Codec
Format profile : High@L3.2
Format settings, CABAC : Yes
Format settings, ReFrames : 4 frames
Codec ID : avc1
Codec ID/Info : Advanced Video Coding
Duration : 24mn 16s
Bit rate : 1 965 Kbps
Maximum bit rate : 6 954 Kbps
Width : 720 pixels
Height : 480 pixels
Display aspect ratio : 16:9
Original display aspect ratio : 16:9
Frame rate mode : Variable
Frame rate : 28.585 fps
Original frame rate : 29.970 fps
Minimum frame rate : 14.985 fps
Maximum frame rate : 119.880 fps
Standard : NTSC
Color space : YUV
Chroma subsampling : 4:2:0
Bit depth : 8 bits
Scan type : Progressive
Bits/(Pixel*Frame) : 0.199
Stream size : 341 MiB (91%)
Title : nhml@GPAC0.5.1-DEV-rev4280+44M git-0f0e3eb
Writing library : x264 core 130 r2273 b3065e6
Encoding settings : cabac=1 / ref=3 / deblock=1:-2:-2 / analyse=0x3:0x113 / me=umh / subme=7 / psy=1 / psy_rd=1.00:0.00 / mixed_ref=1 / me_range=48 / chroma_me=1 / trellis=2 / 8x8dct=1 / cqm=0 / deadzone=21,11 / fast_pskip=1 / chroma_qp_offset=-2 / threads=12 / lookahead_threads=2 / sliced_threads=0 / nr=0 / decimate=1 / interlaced=0 / bluray_compat=0 / constrained_intra=0 / bframes=3 / b_pyramid=2 / b_adapt=2 / b_bias=0 / direct=3 / weightb=1 / open_gop=0 / weightp=1 / keyint=250 / keyint_min=25 / scenecut=40 / intra_refresh=0 / rc_lookahead=40 / rc=crf / mbtree=1 / crf=16.0 / qcomp=0.60 / qpmin=0 / qpmax=69 / qpstep=4 / ip_ratio=1.40 / aq=1:1.50
Encoded date : UTC 2013-06-01 05:55:05
Tagged date : UTC 2013-06-01 05:55:18

Audio
ID : 2
Format : AAC
Format/Info : Advanced Audio Codec
Format profile : LC
Codec ID : 40
Duration : 24mn 16s
Bit rate mode : Variable
Bit rate : 192 Kbps
Maximum bit rate : 210 Kbps
Channel(s) : 2 channels
Channel positions : Front: L R
Sampling rate : 48.0 KHz
Compression mode : Lossy
Stream size : 32.9 MiB (9%)
Encoded date : UTC 2013-06-01 05:54:12
Tagged date : UTC 2013-06-01 05:55:18


Трекер:  [ 13-Июн-2013 22:40 ]

  

Скачать .torrent

Размер .torrent файла 15 KB


Размер: 375 MB
Хэш (hash) релиза: a3857371dec6b9a169e4e16b00865bb269a426c9

Торренты, похожие на Furyou ni Hamerarete Jusei Suru Kyonyuu Okaa-san The Animation Неудавшееся оплодотворение грудастой мамаши скачать торрент

Форум Название Автор Размер S L Добавлен
Хентайные и эротические игры ·· Furyou ni Hamerarete Jusei Suru Kyonyuu Okaa-san The Animation / Неудавшееся оплодотворение грудастой мамаши (Araki Hideki, PinkPineapple)(ep. 1-2 of 2)[cen][2013 г. Housewives, Big tits, Anal, Group, Titsjob, Incest, Femdom, DVDRip][jap / eng / rus] Galfimbul 520408110496 MB 0 0 1395904839

10:20

27-Мар-14

Хентай | С цензурой ·· Furyou ni Hamerarete Jusei Suru Kyonyuu Okaa-san The Animation / Неудавшееся оплодотворение грудастой мамаши (Araki Hideki, PinkPineapple)(ep. 1-2 of 2)[cen][2013 г. Housewives, Big tits, Anal, Group, Titsjob, Incest, Femdom, DVDRip][jap / eng / rus] Galfimbul 520985642497 MB 0 0 1395814988

09:23

26-Мар-14

Хентай | С цензурой ·· Furyou ni Hamerarete Jusei Suru Kyonyuu Okaa-san The Animation / Неудавшееся оплодотворение грудастой мамаши (Araki Hideki, PinkPineapple)(ep. 1-2 of 2)[cen][2013 г. Housewives, Big tits, Anal, Group, Titsjob, Incest, Femdom, DVDRip][jap / eng / rus] LinGr 423950975404 MB 0 0 1382884532

17:35

27-Окт-13

Хентай | С цензурой ·· Furyou ni Hamerarete Jusei Suru Kyonyuu Okaa-san The Animation / Неудавшееся оплодотворение грудастой мамаши (Araki Hideki, PinkPineapple)(ep. 1-2 of 2)[cen][2013 г. Drama, Housewives, Big tits, Anal, Group, Titsjob, Incest, Femdom, DVDRip][jap/eng] LinGr 741318749707 MB 0 0 1381009161

00:39

6-Окт-13

Хентай | С цензурой ·· Furyou ni Hamerarete Jusei Suru Kyonyuu Okaa-san The Animation / Неудавшееся оплодотворение грудастой мамаши (Araki Hideki, Pink Pineapple) (ep. 1-2 of 2) [cen] [2013 г., Big tits, Oral sex, Titsjob, X-Ray, Incest, Rape, Group sex, 2x DVD5] [jap] LinGr 59718917455.56 GB 0 0 1380661188

23:59

1-Окт-13

Еще никто не оставлял запись к записи скачать торрент Furyou ni Hamerarete Jusei Suru Kyonyuu Okaa-san The Animation Неудавшееся оплодотворение грудастой мамаши . Будь первым!

!Обратная связь