Скачать через торрент музыку Земля обетованная Promised Land бесплатно без регистрации torrent

Если у вас наблюдаются проблемы со скриншотами, переходом по ссылками, скачиванием торрентов - проблемы в блокировщике рекламы AdBlock. #хорошегоДня!


Статистика раздачи
Размер:  200 MB   |    Зарегистрирован:  4 года 5 месяцев   |    .torrent скачан:  24 раза   |   
Раздают:  1  
   
Загрузка...
 
Автор Сообщение

Galfimbul

avatar Galfimbul


Земля обетованная / Promised Land
Жанр: Score
Композитор: Danny Elfman
Год выпуска диска: 2013
Год выпуска фильма: 2012
Производитель диска: Sony DADC, Austria
Издатель (лейбл): Sony Classical
Номер по каталогу: 88765446622
Аудиокодек: FLAC (*.flac)
Тип рипа: tracks+.cue
Битрейт аудио: lossless
Продолжительность: 00:39:03
Источник: lztr.us / Sigfredo
Наличие сканов в содержимом раздачи: да, 600 dpi
1. Logo (0:57)
2. Traveling (2:40)
3. Going to Work (2:42)
4. The Meeting (3:12)
5. The Bribe (1:22)
6. Classroom (4:51)
7. Turn Around (1:42)
8. Time Lapse (1:10)
9. Alice''s Farm (3:03)
10. Weepy Donuts (2:22)
11. Lighthouse (1:57)
12. Revelation (3:48)
13. The Speech (2:08)
14. Classroom (Alternative Version) (4:34)
15. Snake Eyes (2:36) The Milk Carton Kids
Exact Audio Copy V1.0 beta 3 from 29. August 2011

EAC extraction logfile from 6. June 2013, 13:34

Danny Elfman / Promised land

Used drive : HL-DT-STDVDRAM GH22NS50 Adapter: 1 ID: 1

Read mode : SecureUtilize accurate stream : YesDefeat audio cache : YesMake use of C2 pointers : No

Read offset correction : 667Overread into Lead-In and Lead-Out : NoFill up missing offset samples with silence : YesDelete leading and trailing silent blocks : NoNull samples used in CRC calculations : YesUsed interface : Native Win32 interface for Win NT & 2000Gap handling : Appended to previous track

Used output format : User Defined EncoderSelected bitrate : 768 kBit/sQuality : HighAdd ID3 tag : NoCommand line compressor : C:\Program Files\FLAC\flac.exeAdditional command line options : -8 -V -T "artist=%artist%" -T "title=%title%" -T "album=%albumtitle%" -T "date=%year%" -T "tracknumber=%tracknr%" -T "genre=%genre%" %source%

TOC of the extracted CD

Track | Start | Length | Start sector | End sector --------------------------------------------------------- 1 | 0:00.00 | 0:57.04 | 0 | 4278 2 | 0:57.04 | 2:39.67 | 4279 | 16270 3 | 3:36.71 | 2:42.23 | 16271 | 28443 4 | 6:19.19 | 3:12.16 | 28444 | 42859 5 | 9:31.35 | 1:22.03 | 42860 | 49012 6 | 10:53.38 | 4:51.01 | 49013 | 70838 7 | 15:44.39 | 1:43.37 | 70839 | 78600 8 | 17:28.01 | 1:11.06 | 78601 | 83931 9 | 18:39.07 | 3:04.33 | 83932 | 97764 10 | 21:43.40 | 2:22.32 | 97765 | 108446 11 | 24:05.72 | 1:56.55 | 108447 | 117201 12 | 26:02.52 | 3:48.44 | 117202 | 134345 13 | 29:51.21 | 2:11.53 | 134346 | 144223 14 | 32:02.74 | 4:35.43 | 144224 | 164891 15 | 36:38.42 | 2:35.62 | 164892 | 176578

Track 1

Filename C:\Users\usuario\Documents\Carátulas\Nuevas Covers\Danny Elfman - Promised land (FLAC)\Score\01 Logo.wav

Pre-gap length 0:00:02.00

Peak level 82.6 % Extraction speed 0.6 X Track quality 100.0 % Test CRC A663A5D9 Copy CRC A663A5D9 Track not present in AccurateRip database Copy OK

Track 2

Filename C:\Users\usuario\Documents\Carátulas\Nuevas Covers\Danny Elfman - Promised land (FLAC)\Score\02 Traveling.wav

Peak level 87.4 % Extraction speed 0.9 X Track quality 100.0 % Test CRC 8227775C Copy CRC 8227775C Track not present in AccurateRip database Copy OK

Track 3

Filename C:\Users\usuario\Documents\Carátulas\Nuevas Covers\Danny Elfman - Promised land (FLAC)\Score\03 Going to work.wav

Pre-gap length 0:00:00.25

Peak level 65.7 % Extraction speed 0.8 X Track quality 99.9 % Test CRC 352EA3E2 Copy CRC 352EA3E2 Track not present in AccurateRip database Copy OK

Track 4

Filename C:\Users\usuario\Documents\Carátulas\Nuevas Covers\Danny Elfman - Promised land (FLAC)\Score\04 The meeting.wav

Pre-gap length 0:00:00.34

Peak level 46.1 % Extraction speed 1.0 X Track quality 99.9 % Test CRC F7249B45 Copy CRC F7249B45 Track not present in AccurateRip database Copy OK

Track 5

Filename C:\Users\usuario\Documents\Carátulas\Nuevas Covers\Danny Elfman - Promised land (FLAC)\Score\05 The bribe.wav

Peak level 47.0 % Extraction speed 1.0 X Track quality 100.0 % Test CRC B8FD577C Copy CRC B8FD577C Track not present in AccurateRip database Copy OK

Track 6

Filename C:\Users\usuario\Documents\Carátulas\Nuevas Covers\Danny Elfman - Promised land (FLAC)\Score\06 Classroom.wav

Pre-gap length 0:00:00.22

Peak level 94.6 % Extraction speed 1.3 X Track quality 100.0 % Test CRC 3E95A2DC Copy CRC 3E95A2DC Track not present in AccurateRip database Copy OK

Track 7

Filename C:\Users\usuario\Documents\Carátulas\Nuevas Covers\Danny Elfman - Promised land (FLAC)\Score\07 Turn around.wav

Pre-gap length 0:00:00.28

Peak level 82.2 % Extraction speed 1.1 X Track quality 100.0 % Test CRC E17F1A3E Copy CRC E17F1A3E Track not present in AccurateRip database Copy OK

Track 8

Filename C:\Users\usuario\Documents\Carátulas\Nuevas Covers\Danny Elfman - Promised land (FLAC)\Score\08 Time lapse.wav

Pre-gap length 0:00:01.14

Peak level 86.9 % Extraction speed 1.0 X Track quality 100.0 % Test CRC BD58824C Copy CRC BD58824C Track not present in AccurateRip database Copy OK

Track 9

Filename C:\Users\usuario\Documents\Carátulas\Nuevas Covers\Danny Elfman - Promised land (FLAC)\Score\09 Alice''s farm.wav

Pre-gap length 0:00:01.00

Peak level 83.3 % Extraction speed 1.4 X Track quality 100.0 % Test CRC BEE48A68 Copy CRC BEE48A68 Track not present in AccurateRip database Copy OK

Track 10

Filename C:\Users\usuario\Documents\Carátulas\Nuevas Covers\Danny Elfman - Promised land (FLAC)\Score\10 Weepy donuts.wav

Pre-gap length 0:00:01.33

Peak level 48.8 % Extraction speed 1.1 X Track quality 99.9 % Test CRC 44CA706B Copy CRC 44CA706B Track not present in AccurateRip database Copy OK

Track 11

Filename C:\Users\usuario\Documents\Carátulas\Nuevas Covers\Danny Elfman - Promised land (FLAC)\Score\11 Lighthouse.wav

Pre-gap length 0:00:00.03

Peak level 94.4 % Extraction speed 1.3 X Track quality 100.0 % Test CRC DF165519 Copy CRC DF165519 Track not present in AccurateRip database Copy OK

Track 12

Filename C:\Users\usuario\Documents\Carátulas\Nuevas Covers\Danny Elfman - Promised land (FLAC)\Score\12 Revelation.wav

Pre-gap length 0:00:00.07

Peak level 61.1 % Extraction speed 1.6 X Track quality 100.0 % Test CRC FBF7521B Copy CRC FBF7521B Track not present in AccurateRip database Copy OK

Track 13

Filename C:\Users\usuario\Documents\Carátulas\Nuevas Covers\Danny Elfman - Promised land (FLAC)\Score\13 The speech.wav

Pre-gap length 0:00:00.44

Peak level 76.8 % Extraction speed 1.5 X Track quality 100.0 % Test CRC 0184E325 Copy CRC 0184E325 Track not present in AccurateRip database Copy OK

Track 14

Filename C:\Users\usuario\Documents\Carátulas\Nuevas Covers\Danny Elfman - Promised land (FLAC)\Score\14 Classroom (Alt. Version).wav

Pre-gap length 0:00:03.41

Peak level 94.4 % Extraction speed 1.6 X Track quality 99.9 % Test CRC EEA15E87 Copy CRC EEA15E87 Track not present in AccurateRip database Copy OK

Track 15

Filename C:\Users\usuario\Documents\Carátulas\Nuevas Covers\Danny Elfman - Promised land (FLAC)\Score\15 Snake eyes.wav

Pre-gap length 0:00:02.00

Peak level 76.8 % Extraction speed 1.7 X Track quality 100.0 % Test CRC 77ED670F Copy CRC 77ED670F Track not present in AccurateRip database Copy OK

None of the tracks are present in the AccurateRip database

No errors occurred

End of status report

==== Log checksum 3E1ECE9476BBE395076F070188D81C022A6313985EF74F53DAC8E73ADD965B5B ====
REM GENRE SoundtrackREM DATE 2013REM DISCID B509320FREM COMMENT "ExactAudioCopy v1.0b3"CATALOG 0887654466228PERFORMER "Danny Elfman"TITLE "Promised land"FILE "01 Logo.wav" WAVE TRACK 01 AUDIO TITLE "Logo" PERFORMER "Danny Elfman" ISRC US6LQ0900549 INDEX 01 00:00:00FILE "02 Traveling.wav" WAVE TRACK 02 AUDIO TITLE "Traveling" PERFORMER "Danny Elfman" ISRC US6LQ0900550 INDEX 01 00:00:00 TRACK 03 AUDIO TITLE "Going to work" PERFORMER "Danny Elfman" ISRC US6LQ0900551 INDEX 00 02:39:42FILE "03 Going to work.wav" WAVE INDEX 01 00:00:00 TRACK 04 AUDIO TITLE "The meeting" PERFORMER "Danny Elfman" ISRC US6LQ0900552 INDEX 00 02:41:64FILE "04 The meeting.wav" WAVE INDEX 01 00:00:00FILE "05 The bribe.wav" WAVE TRACK 05 AUDIO TITLE "The bribe" PERFORMER "Danny Elfman" ISRC US6LQ0900553 INDEX 01 00:00:00 TRACK 06 AUDIO TITLE "Classroom" PERFORMER "Danny Elfman" ISRC US6LQ0900554 INDEX 00 01:21:56FILE "06 Classroom.wav" WAVE INDEX 01 00:00:00 TRACK 07 AUDIO TITLE "Turn around" PERFORMER "Danny Elfman" ISRC US6LQ0900555 INDEX 00 04:50:48FILE "07 Turn around.wav" WAVE INDEX 01 00:00:00 TRACK 08 AUDIO TITLE "Time lapse" PERFORMER "Danny Elfman" ISRC US6LQ0900556 INDEX 00 01:42:23FILE "08 Time lapse.wav" WAVE INDEX 01 00:00:00 TRACK 09 AUDIO TITLE "Alice''s farm" PERFORMER "Danny Elfman" ISRC US6LQ0900557 INDEX 00 01:10:06FILE "09 Alice''s farm.wav" WAVE INDEX 01 00:00:00 TRACK 10 AUDIO TITLE "Weepy donuts" PERFORMER "Danny Elfman" ISRC US6LQ0900558 INDEX 00 03:03:00FILE "10 Weepy donuts.wav" WAVE INDEX 01 00:00:00 TRACK 11 AUDIO TITLE "Lighthouse" PERFORMER "Danny Elfman" ISRC US6LQ0900559 INDEX 00 02:22:29FILE "11 Lighthouse.wav" WAVE INDEX 01 00:00:00 TRACK 12 AUDIO TITLE "Revelation" PERFORMER "Danny Elfman" ISRC US6LQ0900560 INDEX 00 01:56:48FILE "12 Revelation.wav" WAVE INDEX 01 00:00:00 TRACK 13 AUDIO TITLE "The speech" PERFORMER "Danny Elfman" ISRC US6LQ0900561 INDEX 00 03:48:00FILE "13 The speech.wav" WAVE INDEX 01 00:00:00 TRACK 14 AUDIO TITLE "Classroom (Alt. Version)" PERFORMER "Danny Elfman" ISRC US6LQ0900562 INDEX 00 02:08:12FILE "14 Classroom (Alt. Version).wav" WAVE INDEX 01 00:00:00 TRACK 15 AUDIO TITLE "Snake eyes" PERFORMER "The milk karton kids" ISRC USEP41235002 INDEX 00 04:33:43FILE "15 Snake eyes.wav" WAVE INDEX 01 00:00:00


Трекер:  [ 12-Июн-2013 16:28 ]

  

Скачать .torrent

Размер .torrent файла 17 KB


Размер: 200 MB
Хэш (hash) релиза: 6cad0f855d858c6342a7624428d6617b90ad4f

Торренты, похожие на Земля обетованная Promised Land скачать торрент

Форум Название Автор Размер S L Добавлен
Саундтреки ·· (Score) Земля обетованная / Promised Land [Promo] (by Danny Elfman) - 2012, MP3, 320 kbps Galfimbul 109316492104 MB 0 0 1356814200

23:50

29-Дек-12

bot

Топик был перенесен в форум Саундтреки к фильмам и мультфильмам (lossless)

Перенес Galfimbul

Хотите добавить комментарий к записи скачать торрент Земля обетованная Promised Land

!Обратная связь