Скачать порно через торрент Roccos World Feet Obsession 2 Мир Рокко: Одержимость Ножками 2 UnionPeer.org бесплатно онлайн HD качество

Скачать новое порно 2015, 2014 новинки через торрент UnionPeer.org

Порно торрент бесплатно ЮнионПир.орг

Если у вас наблюдаются проблемы со скриншотами, переходом по ссылками, скачиванием торрентов - проблемы в блокировщике рекламы AdBlock. #хорошегоДня!


Статистика раздачи
Размер:  4.36 GB   |    Зарегистрирован:  4 года 2 месяца   |    .torrent скачан:  211 раз   |   
Раздают:  1   Качают:  1  
   
Загрузка...
 
Автор Сообщение

LinGr

avatar LinGr


Rocco''s World Feet Obsession 2 / Мир Рокко: Одержимость Ножками 2
Год производства: 2013 г.
Released on DVD: March 4, 2013
Страна: USA
Жанр: Gonzo, Foreign, Blowjob, Deep Throat, Anal, Ass To Mouth, Facial, CumSwap, Swallow, Teens/Young Women, Hardcore, Threesomes, Fetish, Foot and Legs, Lingerie/Stockings, Fishnet, Glass, Outdoors, Public Sex, Europeans, Rocco''s World Feet Obsession Series
Продолжительность: 02:51:04 (фильм) + 00:17:29 (BTS) + 00:34:09 (др. бонусы)

Режиссер: Rocco Siffredi
Студия: Rocco Siffredi Produzione (Evil Angel)

Язык: Английский

В ролях:
Actresses-
Cayenne Klein [Anal]
Madlin (as Madlin Moon) [Anal]
Mea Melone [Anal]
Mira Sunset (as Mira) [Anal]
Nataly Von
Sindy Vega
Tina Blade [Anal]
Valentina Nappi [Anal]

Actors- Ian Scott, Mike Angelo, Rocco Siffredi

Scene Breakdowns
Scene 1. Cayenne Klein, Nataly Von, Ian Scott
Scene 2. Mira Sunset, Sindy Vega, Rocco Siffredi
Scene 3. Mea Melone, Tina Blade, Mike Angelo
Scene 4. Madlin, Valentina Nappi, Ian Scott


Описание:
Pretty feet make me very much turned on, especially with a really nice pedicure. But lately it is very incredible how girls that have never been done before are absolutely going crazy for it and really turned on - it just works perfect." -Rocco Siffredi

Rocco Siffredi’s “Rocco’s World Feet Obsession #2” is a single-disc DVD with extra sex, cumshot recap, photo galleries, cast list, filmographies and trailers.

Доп. информация
http://www.cduniverse.com/productinfo.asp?pid=8913723&style=ice
http://www.iafd.com/results.asp?searchtype=comprehensive&searchstring=Feet+Obsession
http://straight.theater.moviemonster.com/dispatcher/movieDetail?movieId=165743&locale=en&theaterId=20977&genreId=101


Trailer

Меню: Есть
Доп. материалы и бонусы: http://www.adultdvdemart.com/-/adult_dvd_product_info/filmid=EVAN00888.html/-182CD7D2-CCF3-4CDF-A1DA-2A6BB20853B1

Качество видео: DVD5
Аудио кодек: AC3
Видео: 7500 Kbps, 29.970 fps, 720*480 (or 853*480 / 16:9), MPG2 = MPEG 2 (SVCD/DVD)
Аудио: 192 Kbps, 48000 Hz, 2 ch, 0x2000 = AC3 DVM [0x80]

Общее
Полное имя : Rocco''s World Feet Obsession 2 (2013) DVD5\VIDEO_TS\VTS_01_1.VOB
Формат : MPEG-PS
Размер файла : 1024 Мбайт
Продолжительность : 45 м.
Режим общего битрейта : Переменный
Общий поток : 3117 Кбит/сек

Видео
Идентификатор : 224 (0xE0)
Формат : MPEG Video
Версия формата : Version 2
Профиль формата : Main@Main
Параметр BVOP формата : Да
Параметр матрицы формата : Выборочная
Параметр GOP формата : M=3, N=15
Продолжительность : 45 м.
Вид битрейта : Переменный
Битрейт : 2863 Кбит/сек
Максимальный битрейт : 7500 Кбит/сек
Ширина : 720 пикселей
Высота : 480 пикселей
Соотношение сторон : 16:9
Частота кадров : 29,970 кадров/сек
Стандарт вещания : NTSC
Цветовое пространство : YUV
Субдискретизация насыщенности : 4:2:0
Битовая глубина : 8 бит
Тип развёртки : Прогрессивная
Метод сжатия : С потерями
Бит/(Пиксели*Кадры) : 0.276
TimeCode_FirstFrame : 01:00:00:00
TimeCode_Source : Group of pictures header
Размер потока : 941 Мбайт (92%)
Основные цвета : BT.601 NTSC
Характеристики трансфера : BT.601
Коэффициенты матрицы : BT.601

Аудио
Идентификатор : 189 (0xBD)-128 (0x80)
Формат : AC-3
Формат/Информация : Audio Coding 3
Расширение режима : CM (complete main)
Параметр Endianness формата : Big
Режим смешивания : DVD-Video
Продолжительность : 45 м.
Вид битрейта : Постоянный
Битрейт : 192 Кбит/сек
Каналы : 2 канала
Расположение каналов : Front: L R
Частота : 48,0 КГц
Битовая глубина : 16 бит
Метод сжатия : С потерями
Размер потока : 63,1 Мбайт (6%)

Меню


Трекер:  [ 07-Июн-2013 21:04 ]

  

Скачать .torrent

Размер .torrent файла 14 KB


Размер: 4.36 GB
Хэш (hash) релиза: 1d79a2f17dfe95fa0fccc08074f0544160f984e4

bot

Топик был перенесен в форум Гонзо-фильмы

Перенес Mahmud_1

Хотите добавить комментарий к записи скачать торрент Roccos World Feet Obsession 2 Мир Рокко: Одержимость Ножками 2

!Обратная связь