Скачать порно через торрент Lewd Oil Распутная Смазка UnionPeer.org бесплатно онлайн HD качество

Скачать новое порно 2015, 2014 новинки через торрент UnionPeer.org

Порно торрент бесплатно ЮнионПир.орг

Если у вас наблюдаются проблемы со скриншотами, переходом по ссылками, скачиванием торрентов - проблемы в блокировщике рекламы AdBlock. #хорошегоДня!


Статистика раздачи
Размер:  4.36 GB   |    Зарегистрирован:  4 года 5 месяцев   |    .torrent скачан:  240 раз   |   
Раздают:  1  
   
Загрузка...
 
Автор Сообщение

LinGr

avatar LinGr


Lewd Oil / Распутная Смазка
Год производства: 2008 г.
Released on DVD: May 30, 2008
Страна: USA
Жанр: Gonzo, All Sex & Compilations, Blowjob, Deep Throat, Throat Fucking, Anal, Facial, Swallow, Toe Sucking, Handjob, Masturbation, Big Ass, Big Tits, Natural Breasts, Tittie Fucking, Fetish, Modeling, Lingerie/Stockings, Wet/Messy, Oil, One-on-One, Interracial, Asian Girls, Big Cock, Hardcore, Straight
Продолжительность: 01:52:59 (фильм) + 00:09:40 (BTS) + 00:20:09 (бонус сцена) + 01:20:23 (по жанрам) + 00:07:04 (др. бонусы)

Режиссер: Hero Morimoto
Студия: Digital Sin

Язык: Английский

В ролях:
Actresses-
Jessica Bangkok
Lana Croft [Anal]
Lana Violet [Facial]
Sayuri (as Lily Li)
Priva [Facial Swallow]

DVD Only
Brooke Banner

Actors- Anthony Rosano, Jordan Ash, Mark Ashley, Michael Stefano
Scene 1. Jessica Bangkok, Mark Ashley
Scene 2. Lana Violet, Mark Ashley
Scene 3. Sayuri, Jordan Ash
Scene 4. Priva, Michael Stefano
Scene 5. Lana Croft, Anthony Rosano
DVD Bonus. Brooke Banner, Michael Stefano
Описание:
Are you ready for a messy good time? Because we’re about to lube up five sexy Asian dolls until their bodies feel like giant wet pussies. Jessica Bangkok, Lana Croft, Lily Li, Lana Violet, and Priva are about to get drenched in oil so they can rub-a-dub all night long. And with over 2 hours (including a bonus scene) of slippery slide action, you can lube up with them all night long! Меню: Есть
Доп. материалы и бонусы: http://www.adultdvdemart.com/-/adult_dvd_product_info/filmid=DISN00016.html/-AC7790EF-2138-4B9A-8CC2-1DC0BEF4959B

Качество видео: DVD5
Аудио кодек: AC3
Видео: 7700 Kbps, 29.970 fps, разрешение 720*480 (or 640*480 / 4:3), MPG2 = MPEG 2 (SVCD/DVD)
Аудио: 192 Kbps, 48000 Hz, 2 ch, 0x2000 = AC3 DVM [0x80]

Общее
Полное имя : Lewd Oil (2008) DVD5\VIDEO_TS\VTS_08_1.VOB
Формат : MPEG-PS
Размер файла : 1024 Мбайт
Продолжительность : 30 м.
Режим общего битрейта : Переменный
Общий поток : 4650 Кбит/сек

Видео
Идентификатор : 224 (0xE0)
Формат : MPEG Video
Версия формата : Version 2
Профиль формата : Main@Main
Параметр BVOP формата : Да
Параметр матрицы формата : Выборочная
Параметр GOP формата : M=3, N=15
Продолжительность : 30 м.
Вид битрейта : Переменный
Битрейт : 4365 Кбит/сек
Максимальный битрейт : 7700 Кбит/сек
Ширина : 720 пикселей
Высота : 480 пикселей
Соотношение сторон : 4:3
Частота кадров : 29,970 кадров/сек
Стандарт вещания : NTSC
Цветовое пространство : YUV
Субдискретизация насыщенности : 4:2:0
Битовая глубина : 8 бит
Тип развёртки : Чересстрочная
Порядок развёртки : Нижнее поле первое
Метод сжатия : С потерями
Бит/(Пиксели*Кадры) : 0.421
TimeCode_FirstFrame : 01:00:00;00
TimeCode_Source : Group of pictures header
Размер потока : 961 Мбайт (94%)
Основные цвета : BT.601 NTSC
Характеристики трансфера : BT.601
Коэффициенты матрицы : BT.601

Аудио
Идентификатор : 189 (0xBD)-128 (0x80)
Формат : AC-3
Формат/Информация : Audio Coding 3
Расширение режима : CM (complete main)
Параметр Endianness формата : Big
Режим смешивания : DVD-Video
Продолжительность : 30 м.
Вид битрейта : Постоянный
Битрейт : 192 Кбит/сек
Каналы : 2 канала
Расположение каналов : Front: L R
Частота : 48,0 КГц
Битовая глубина : 16 бит
Метод сжатия : С потерями
Размер потока : 42,3 Мбайт (4%)

Меню


Трекер:  [ 07-Июн-2013 21:04 ]

  

Скачать .torrent

Размер .torrent файла 13 KB


Размер: 4.36 GB
Хэш (hash) релиза: 7e811f12e06e1603c2542113f02b41950848fe7b

Торренты, похожие на Lewd Oil Распутная Смазка скачать торрент

Форум Название Автор Размер S L Добавлен
Этнические порно фильмы ·· [WDAC] Lewd Oil / Распутная Смазка (Hero Morimoto, Digital Sin) [2008 г., All Sex, Interracial, Asian, DVDRip] Galfimbul 727547904694 MB 0 0 1452644026

03:13

13-Янв-16

bot

Топик был перенесен в форум Гонзо-фильмы

Перенес Mahmud_1

Хотите добавить комментарий к записи скачать торрент Lewd Oil Распутная Смазка

!Обратная связь