Скачать через торрент музыку Не плачь с полными устами Простофили бесплатно без регистрации torrent

Если у вас наблюдаются проблемы со скриншотами, переходом по ссылками, скачиванием торрентов - проблемы в блокировщике рекламы AdBlock. #хорошегоДня!


Статистика раздачи
Размер:  467 MB   |    Зарегистрирован:  4 года 3 месяца   |    .torrent скачан:  18 раз   |   
Раздают:  1  
   
Загрузка...
 
Автор Сообщение

Galfimbul

avatar Galfimbul


Не плачь с полными устами / Простофили / Горячий кролик / Сюрприз для повара / Откровенность за откровенность / Еж в кармане / Те, которых не поимели / Беспорядок
*Pleure pas la bouche pleine / Les Zozos / Le Chaud Lapin / La surprise du chef / Confidences pour confidences / Un oursin dans la poche / Celles qu''on n''a pas eues / La pagaille *


Жанр: Score
Композитор: Vladimir Cosma
Год выпуска диска: 2001
Страна-производитель диска: France
Издатель (лейбл): Pomme Music
Номер по каталогу: 952 782
Аудио кодек: FLAC (*.flac)
Тип рипа: tracks+.cue
Битрейт аудио: lossless
Продолжительность:01:05:08
Источник: Собственный рип
Наличие сканов в содержимом раздачи: да
Треклист:
PLEURE PAS LA BOUCHE PLEINE (1973) tracks 1-3 (1 chanté par Marino Marini):
1. Non si piange con la bocca piena (02:48)
2. Tarantelle d''Alexandre (02:01)
3. En famille (01:21)
LES ZOZOS (1973) tracks 4-6:
4. Tango des zozos (03:37)
5. Zozo''s One Step (02:45)
6. Quand l''école sera finie (03:15)
LE CHAUD LAPIN (1974) tracks 7-8:
7. Samba Cueca (02:08)
8. Goodbye William (03:15)
LA SURPRISE DU CHEF (1976) tracks 9-12:
9. La Surprise du chef (02:25)
10. Cha-cha de St Chartres (03:37)
11. Boléro Papinou (03:52)
12. Vieni Qui (02:50) - chanté par Marino Marini
CONFIDENCES POUR CONFIDENCES (1978) tracks 13-15:
13. Confidences pour confidences (02:47)
14. Les Trois soeurs (02:01)
15. Le Déménagement (01:25)
UN OURSIN DANS LA POCHE (1977) tracks 16-19 (16 & 17 chanté par Georges Tabet):
16. Les Souliers vernis (02:34)
17. Les Automates (02:23)
18. Le Chef de service (03:00)
19. Un oursin dans la poche (02:00)
CELLES QU''ON N''A PAS EUES (1980) track 20:
20. Celles qu''on n''a pas eues (04:26)
LA PAGAILLE (1991) tracks 21-22:
21. La Pagaille (05:34)
22. Cadre dynamique (05:04)
Exact Audio Copy V1.0 beta 3 from 29. August 2011

EAC extraction logfile from 1. June 2013, 16:45

Vladimir Cosma / Le Chaud Lapin

Used drive : PLEXTOR DVDR PX-L890SA Adapter: 1 ID: 0

Read mode : SecureUtilize accurate stream : YesDefeat audio cache : YesMake use of C2 pointers : No

Read offset correction : 6Overread into Lead-In and Lead-Out : NoFill up missing offset samples with silence : YesDelete leading and trailing silent blocks : NoNull samples used in CRC calculations : YesUsed interface : Installed external ASPI interfaceGap handling : Appended to previous track

Used output format : User Defined EncoderSelected bitrate : 1024 kBit/sQuality : HighAdd ID3 tag : NoCommand line compressor : C:\Program Files\Exact Audio Copy\Flac\flac.exeAdditional command line options : -V -8 -T "Genre=%genre%" -T "Artist=%artist%" -T "Title=%title%" -T "Album=%albumtitle%" -T "Date=%year%" -T "Tracknumber=%tracknr%" -T "Comment=%comment%" %source%

TOC of the extracted CD

Track | Start | Length | Start sector | End sector --------------------------------------------------------- 1 | 0:00.32 | 2:51.08 | 32 | 12864 2 | 2:51.40 | 2:02.20 | 12865 | 22034 3 | 4:53.60 | 1:24.20 | 22035 | 28354 4 | 6:18.05 | 3:37.72 | 28355 | 44701 5 | 9:56.02 | 2:45.20 | 44702 | 57096 6 | 12:41.22 | 3:17.70 | 57097 | 71941 7 | 15:59.17 | 2:10.68 | 71942 | 81759 8 | 18:10.10 | 3:24.42 | 81760 | 97101 9 | 21:34.52 | 2:26.30 | 97102 | 108081 10 | 24:01.07 | 3:38.30 | 108082 | 124461 11 | 27:39.37 | 3:53.38 | 124462 | 141974 12 | 31:33.00 | 2:54.05 | 141975 | 155029 13 | 34:27.05 | 2:41.10 | 155030 | 167114 14 | 37:08.15 | 2:02.00 | 167115 | 176264 15 | 39:10.15 | 1:27.65 | 176265 | 182854 16 | 40:38.05 | 2:35.37 | 182855 | 194516 17 | 43:13.42 | 2:23.13 | 194517 | 205254 18 | 45:36.55 | 2:58.17 | 205255 | 218621 19 | 48:34.72 | 2:03.45 | 218622 | 227891 20 | 50:38.42 | 4:30.03 | 227892 | 248144 21 | 55:08.45 | 5:38.22 | 248145 | 273516 22 | 60:46.67 | 5:05.40 | 273517 | 296431

Track 1

Filename F:\torrent\Le Chaud Lapin_Vladimir Cosma\score\01 Non Si Piange Con La Bocca Plena (pleure Pas La Bouche Pleine).wav

Pre-gap length 0:00:02.32

Peak level 99.9 % Extraction speed 4.8 X Track quality 100.0 % Test CRC 60E84A68 Copy CRC 60E84A68 Track not present in AccurateRip database Copy OK

Track 2

Filename F:\torrent\Le Chaud Lapin_Vladimir Cosma\score\02 Tarantelle D''alexandre (pleure Pas La Bouche Pleine).wav

Pre-gap length 0:00:01.00

Peak level 99.9 % Extraction speed 4.6 X Track quality 100.0 % Test CRC 078F297D Copy CRC 078F297D Track not present in AccurateRip database Copy OK

Track 3

Filename F:\torrent\Le Chaud Lapin_Vladimir Cosma\score\03 En Famille (pleure Pas La Bouche Pleine).wav

Peak level 99.3 % Extraction speed 4.3 X Track quality 100.0 % Test CRC 92021BE9 Copy CRC 92021BE9 Track not present in AccurateRip database Copy OK

Track 4

Filename F:\torrent\Le Chaud Lapin_Vladimir Cosma\score\04 Tango Des Zozos (les Zozos).wav

Pre-gap length 0:00:03.00

Peak level 99.9 % Extraction speed 5.8 X Track quality 100.0 % Test CRC BB1A91A9 Copy CRC BB1A91A9 Track not present in AccurateRip database Copy OK

Track 5

Filename F:\torrent\Le Chaud Lapin_Vladimir Cosma\score\05 Zozo''s One Step (les Zozos).wav

Peak level 99.9 % Extraction speed 5.9 X Track quality 100.0 % Test CRC 485DADB3 Copy CRC 485DADB3 Track not present in AccurateRip database Copy OK

Track 6

Filename F:\torrent\Le Chaud Lapin_Vladimir Cosma\score\06 Quand L''ecole Sera Finie (les Zozos).wav

Peak level 94.7 % Extraction speed 6.5 X Track quality 100.0 % Test CRC E3D1B686 Copy CRC E3D1B686 Track not present in AccurateRip database Copy OK

Track 7

Filename F:\torrent\Le Chaud Lapin_Vladimir Cosma\score\07 Samba Cueca (le Chaud Lapin).wav

Pre-gap length 0:00:02.00

Peak level 81.7 % Extraction speed 6.1 X Track quality 100.0 % Test CRC 724F2B0D Copy CRC 724F2B0D Track not present in AccurateRip database Copy OK

Track 8

Filename F:\torrent\Le Chaud Lapin_Vladimir Cosma\score\08 Goodbye William (le Chaud Lapin).wav

Peak level 70.2 % Extraction speed 7.0 X Track quality 100.0 % Test CRC FA7CF469 Copy CRC FA7CF469 Track not present in AccurateRip database Copy OK

Track 9

Filename F:\torrent\Le Chaud Lapin_Vladimir Cosma\score\09 La Surprise Du Chef (la Surprise Du Chef).wav

Pre-gap length 0:00:03.22

Peak level 87.7 % Extraction speed 5.6 X Track quality 99.9 % Test CRC 453CF091 Copy CRC 453CF091 Track not present in AccurateRip database Copy OK

Track 10

Filename F:\torrent\Le Chaud Lapin_Vladimir Cosma\score\10 Cha Cha De St Chartres (la Surprise Du Chef).wav

Pre-gap length 0:00:01.00

Peak level 99.9 % Extraction speed 7.6 X Track quality 100.0 % Test CRC 37ED17C2 Copy CRC 37ED17C2 Track not present in AccurateRip database Copy OK

Track 11

Filename F:\torrent\Le Chaud Lapin_Vladimir Cosma\score\11 Bolero Papinou (la Surprise Du Chef).wav

Pre-gap length 0:00:01.00

Peak level 82.2 % Extraction speed 8.0 X Track quality 100.0 % Test CRC 6A7155BD Copy CRC 6A7155BD Track not present in AccurateRip database Copy OK

Track 12

Filename F:\torrent\Le Chaud Lapin_Vladimir Cosma\score\12 Vieni Qui (la Surprise Du Chef).wav

Peak level 88.8 % Extraction speed 7.9 X Track quality 100.0 % Test CRC 432F628C Copy CRC 432F628C Track not present in AccurateRip database Copy OK

Track 13

Filename F:\torrent\Le Chaud Lapin_Vladimir Cosma\score\13 Confidences Pour Confidences (confidences Pour Confidences).wav

Pre-gap length 0:00:02.00

Peak level 96.2 % Extraction speed 7.9 X Track quality 100.0 % Test CRC F8C5C27E Copy CRC F8C5C27E Track not present in AccurateRip database Copy OK

Track 14

Filename F:\torrent\Le Chaud Lapin_Vladimir Cosma\score\14 Les Trois Soeurs (confidences Pour Confidences).wav

Pre-gap length 0:00:01.00

Peak level 88.6 % Extraction speed 7.7 X Track quality 100.0 % Test CRC 448808A9 Copy CRC 448808A9 Track not present in AccurateRip database Copy OK

Track 15

Filename F:\torrent\Le Chaud Lapin_Vladimir Cosma\score\15 Le Demenagement (confidences Pour Confidences).wav

Pre-gap length 0:00:01.00

Peak level 99.9 % Extraction speed 7.0 X Track quality 100.0 % Test CRC A9DB9E11 Copy CRC A9DB9E11 Track not present in AccurateRip database Copy OK

Track 16

Filename F:\torrent\Le Chaud Lapin_Vladimir Cosma\score\16 Les Souliers Vernis (un Oursin Dans La Poche).wav

Pre-gap length 0:00:03.00

Peak level 79.3 % Extraction speed 8.4 X Track quality 100.0 % Test CRC 4893F244 Copy CRC 4893F244 Track not present in AccurateRip database Copy OK

Track 17

Filename F:\torrent\Le Chaud Lapin_Vladimir Cosma\score\17 Les Automates (un Oursin Dans La Poche).wav

Peak level 79.3 % Extraction speed 8.4 X Track quality 100.0 % Test CRC 82F4ACC2 Copy CRC 82F4ACC2 Track not present in AccurateRip database Copy OK

Track 18

Filename F:\torrent\Le Chaud Lapin_Vladimir Cosma\score\18 Le Chef De Service (un Oursin Dans La Poche).wav

Peak level 93.8 % Extraction speed 8.9 X Track quality 100.0 % Test CRC 5906C1BD Copy CRC 5906C1BD Track not present in AccurateRip database Copy OK

Track 19

Filename F:\torrent\Le Chaud Lapin_Vladimir Cosma\score\19 Un Oursin Dans La Poche (un Oursin Dans La Poche).wav

Peak level 90.3 % Extraction speed 8.4 X Track quality 100.0 % Test CRC AA2F4375 Copy CRC AA2F4375 Track not present in AccurateRip database Copy OK

Track 20

Filename F:\torrent\Le Chaud Lapin_Vladimir Cosma\score\20 Celles Qu''on N''a Pas Eues (celles Qu''on N''a Pas Eues).wav

Pre-gap length 0:00:03.50

Peak level 82.3 % Extraction speed 9.9 X Track quality 100.0 % Test CRC 4B91AD3B Copy CRC 4B91AD3B Track not present in AccurateRip database Copy OK

Track 21

Filename F:\torrent\Le Chaud Lapin_Vladimir Cosma\score\21 La Pagaille (la Pagaille).wav

Pre-gap length 0:00:03.25

Peak level 99.9 % Extraction speed 9.6 X Track quality 99.9 % Test CRC BC1D4087 Copy CRC BC1D4087 Track not present in AccurateRip database Copy OK

Track 22

Filename F:\torrent\Le Chaud Lapin_Vladimir Cosma\score\22 Cadre Dynamique (la Pagaille).wav

Pre-gap length 0:00:03.00

Peak level 96.6 % Extraction speed 9.7 X Track quality 100.0 % Test CRC 4D9887A7 Copy CRC 4D9887A7 Track not present in AccurateRip database Copy OK

None of the tracks are present in the AccurateRip database

No errors occurred

End of status report

==== Log checksum 4A42E457438B92AD2D5378CA94536A2B11A28F493AE694AFE5F2C0A2833A4E72 ====
REM GENRE SoundtrackREM DATE 2001REM DISCID 3A0F7016REM COMMENT "ExactAudioCopy v1.0b3"PERFORMER "Vladimir Cosma"TITLE "Le Chaud Lapin"FILE "01 Non Si Piange Con La Bocca Plena (pleure Pas La Bouche Pleine).wav" WAVE TRACK 01 AUDIO TITLE "Non Si Piange Con La Bocca Plena (pleure Pas La Bouche Pleine)" PERFORMER "Vladimir Cosma" PREGAP 00:00:32 INDEX 01 00:00:00 TRACK 02 AUDIO TITLE "Tarantelle D''alexandre (pleure Pas La Bouche Pleine)" PERFORMER "Vladimir Cosma" INDEX 00 02:50:08FILE "02 Tarantelle D''alexandre (pleure Pas La Bouche Pleine).wav" WAVE INDEX 01 00:00:00FILE "03 En Famille (pleure Pas La Bouche Pleine).wav" WAVE TRACK 03 AUDIO TITLE "En Famille (pleure Pas La Bouche Pleine)" PERFORMER "Vladimir Cosma" INDEX 01 00:00:00 TRACK 04 AUDIO TITLE "Tango Des Zozos (les Zozos)" PERFORMER "Vladimir Cosma" INDEX 00 01:21:20FILE "04 Tango Des Zozos (les Zozos).wav" WAVE INDEX 01 00:00:00FILE "05 Zozo''s One Step (les Zozos).wav" WAVE TRACK 05 AUDIO TITLE "Zozo''s One Step (les Zozos)" PERFORMER "Vladimir Cosma" INDEX 01 00:00:00FILE "06 Quand L''ecole Sera Finie (les Zozos).wav" WAVE TRACK 06 AUDIO TITLE "Quand L''ecole Sera Finie (les Zozos)" PERFORMER "Vladimir Cosma" INDEX 01 00:00:00 TRACK 07 AUDIO TITLE "Samba Cueca (le Chaud Lapin)" PERFORMER "Vladimir Cosma" INDEX 00 03:15:70FILE "07 Samba Cueca (le Chaud Lapin).wav" WAVE INDEX 01 00:00:00FILE "08 Goodbye William (le Chaud Lapin).wav" WAVE TRACK 08 AUDIO TITLE "Goodbye William (le Chaud Lapin)" PERFORMER "Vladimir Cosma" INDEX 01 00:00:00 TRACK 09 AUDIO TITLE "La Surprise Du Chef (la Surprise Du Chef)" PERFORMER "Vladimir Cosma" INDEX 00 03:21:20FILE "09 La Surprise Du Chef (la Surprise Du Chef).wav" WAVE INDEX 01 00:00:00 TRACK 10 AUDIO TITLE "Cha Cha De St Chartres (la Surprise Du Chef)" PERFORMER "Vladimir Cosma" INDEX 00 02:25:30FILE "10 Cha Cha De St Chartres (la Surprise Du Chef).wav" WAVE INDEX 01 00:00:00 TRACK 11 AUDIO TITLE "Bolero Papinou (la Surprise Du Chef)" PERFORMER "Vladimir Cosma" INDEX 00 03:37:30FILE "11 Bolero Papinou (la Surprise Du Chef).wav" WAVE INDEX 01 00:00:00FILE "12 Vieni Qui (la Surprise Du Chef).wav" WAVE TRACK 12 AUDIO TITLE "Vieni Qui (la Surprise Du Chef)" PERFORMER "Vladimir Cosma" INDEX 01 00:00:00 TRACK 13 AUDIO TITLE "Confidences Pour Confidences (confidences Pour Confidences)" PERFORMER "Vladimir Cosma" INDEX 00 02:52:05FILE "13 Confidences Pour Confidences (confidences Pour Confidences).wav" WAVE INDEX 01 00:00:00 TRACK 14 AUDIO TITLE "Les Trois Soeurs (confidences Pour Confidences)" PERFORMER "Vladimir Cosma" INDEX 00 02:40:10FILE "14 Les Trois Soeurs (confidences Pour Confidences).wav" WAVE INDEX 01 00:00:00 TRACK 15 AUDIO TITLE "Le Demenagement (confidences Pour Confidences)" PERFORMER "Vladimir Cosma" INDEX 00 02:01:00FILE "15 Le Demenagement (confidences Pour Confidences).wav" WAVE INDEX 01 00:00:00 TRACK 16 AUDIO TITLE "Les Souliers Vernis (un Oursin Dans La Poche)" PERFORMER "Vladimir Cosma" INDEX 00 01:24:65FILE "16 Les Souliers Vernis (un Oursin Dans La Poche).wav" WAVE INDEX 01 00:00:00FILE "17 Les Automates (un Oursin Dans La Poche).wav" WAVE TRACK 17 AUDIO TITLE "Les Automates (un Oursin Dans La Poche)" PERFORMER "Vladimir Cosma" INDEX 01 00:00:00FILE "18 Le Chef De Service (un Oursin Dans La Poche).wav" WAVE TRACK 18 AUDIO TITLE "Le Chef De Service (un Oursin Dans La Poche)" PERFORMER "Vladimir Cosma" INDEX 01 00:00:00FILE "19 Un Oursin Dans La Poche (un Oursin Dans La Poche).wav" WAVE TRACK 19 AUDIO TITLE "Un Oursin Dans La Poche (un Oursin Dans La Poche)" PERFORMER "Vladimir Cosma" INDEX 01 00:00:00 TRACK 20 AUDIO TITLE "Celles Qu''on N''a Pas Eues (celles Qu''on N''a Pas Eues)" PERFORMER "Vladimir Cosma" INDEX 00 01:59:70FILE "20 Celles Qu''on N''a Pas Eues (celles Qu''on N''a Pas Eues).wav" WAVE INDEX 01 00:00:00 TRACK 21 AUDIO TITLE "La Pagaille (la Pagaille)" PERFORMER "Vladimir Cosma" INDEX 00 04:26:53FILE "21 La Pagaille (la Pagaille).wav" WAVE INDEX 01 00:00:00 TRACK 22 AUDIO TITLE "Cadre Dynamique (la Pagaille)" PERFORMER "Vladimir Cosma" INDEX 00 05:35:22FILE "22 Cadre Dynamique (la Pagaille).wav" WAVE INDEX 01 00:00:00
AUDIOCHECKER v2.0 beta (build 457) - by Dester - opdester@freemail.hu~~~~~~~~~~~~~~~~~~~~~~~~~~~~~~~~~~-=== НЕ РЕДАКТИРУЙТЕ ЭТОТ ФАЙЛ! ===-

Путь: ...\score

01 -=- 01 Non Si Piange Con La Bocca Plena (pleure Pas La Bouche Pleine).flac -=- CDDA (100%)02 -=- 02 Tarantelle D''alexandre (pleure Pas La Bouche Pleine).flac -=- CDDA (100%)03 -=- 03 En Famille (pleure Pas La Bouche Pleine).flac -=- CDDA (43%)04 -=- 04 Tango Des Zozos (les Zozos).flac -=- CDDA (100%)05 -=- 05 Zozo''s One Step (les Zozos).flac -=- CDDA (100%)06 -=- 06 Quand L''ecole Sera Finie (les Zozos).flac -=- CDDA (100%)07 -=- 07 Samba Cueca (le Chaud Lapin).flac -=- CDDA (100%)08 -=- 08 Goodbye William (le Chaud Lapin).flac -=- CDDA (99%)09 -=- 09 La Surprise Du Chef (la Surprise Du Chef).flac -=- CDDA (100%)10 -=- 10 Cha Cha De St Chartres (la Surprise Du Chef).flac -=- CDDA (100%)11 -=- 11 Bolero Papinou (la Surprise Du Chef).flac -=- MPEG (95%)12 -=- 12 Vieni Qui (la Surprise Du Chef).flac -=- CDDA (100%)13 -=- 13 Confidences Pour Confidences (confidences Pour Confidences).flac -=- CDDA (100%)14 -=- 14 Les Trois Soeurs (confidences Pour Confidences).flac -=- CDDA (100%)15 -=- 15 Le Demenagement (confidences Pour Confidences).flac -=- CDDA (100%)16 -=- 16 Les Souliers Vernis (un Oursin Dans La Poche).flac -=- CDDA (100%)17 -=- 17 Les Automates (un Oursin Dans La Poche).flac -=- CDDA (100%)18 -=- 18 Le Chef De Service (un Oursin Dans La Poche).flac -=- CDDA (100%)19 -=- 19 Un Oursin Dans La Poche (un Oursin Dans La Poche).flac -=- CDDA (100%)20 -=- 20 Celles Qu''on N''a Pas Eues (celles Qu''on N''a Pas Eues).flac -=- CDDA (99%)21 -=- 21 La Pagaille (la Pagaille).flac -=- CDDA (100%)22 -=- 22 Cadre Dynamique (la Pagaille).flac -=- CDDA (99%)

Сводка 92,95% CDDA

166602900


Трекер:  [ 12-Июн-2013 16:30 ]

  

Скачать .torrent

Размер .torrent файла 21 KB


Размер: 467 MB
Хэш (hash) релиза: 8e5e3dd13bcfa3ab96fa5e420d51078dc4094114

bot

Топик был перенесен в форум Саундтреки к фильмам и мультфильмам (lossless)

Перенес Galfimbul

Хотите добавить комментарий к записи скачать торрент Не плачь с полными устами Простофили

!Обратная связь