Скачать порно через торрент SM no Susume Запретные основы UnionPeer.org бесплатно онлайн HD качество

Скачать новое порно 2015, 2014 новинки через торрент UnionPeer.org

Порно торрент бесплатно ЮнионПир.орг

Если у вас наблюдаются проблемы со скриншотами, переходом по ссылками, скачиванием торрентов - проблемы в блокировщике рекламы AdBlock. #хорошегоДня!


Статистика раздачи
Размер:  314 MB   |    Зарегистрирован:  4 года 4 месяца   |    .torrent скачан:  128 раз   |   
Раздают:  1  
   
Загрузка...
 
Автор Сообщение

Galfimbul

avatar Galfimbul


SM no Susume
Запретные основы


Год выпуска: 2001
Страна: Япония
Жанр: Masturbation, Oral
Продолжительность: 00:29:01
Перевод: Отсутствует
Русские субтитры: нет
Цензура: есть

Студия: Museum Pictures, Milky, AMGA

Описание: Он и три девушки вокруг него. Молодая учительница, его неродная младшая сестра, подруга сестры. Кого из трёх этот безликий главгерой выберет для своих съёмок?

Качество: DVDRip
Формат: AVI

Video: MPEG4 Video (H264) 960x720 26.546fps 1348Kbps
Audio: AAC 48000Hz stereo 160kbps
General
Complete name : SM no Susume (DVD 960x720 x264 AAC).mp4
Format : MPEG-4
Format profile : Base Media / Version 2
Codec ID : mp42
File size : 314 MiB
Duration : 29mn 0s
Overall bit rate mode : Variable
Overall bit rate : 1 513 Kbps
Encoded date : UTC 2013-04-28 11:34:52
Tagged date : UTC 2013-04-28 11:34:52

Video
ID : 1
Format : AVC
Format/Info : Advanced Video Codec
Format profile : High@L3.1
Format settings, CABAC : Yes
Format settings, ReFrames : 5 frames
Codec ID : avc1
Codec ID/Info : Advanced Video Coding
Duration : 29mn 0s
Bit rate : 1 348 Kbps
Maximum bit rate : 3 648 Kbps
Width : 960 pixels
Height : 720 pixels
Display aspect ratio : 4:3
Frame rate mode : Variable
Frame rate : 26.546 fps
Original frame rate : 29.970 fps
Minimum frame rate : 14.985 fps
Maximum frame rate : 119.880 fps
Color space : YUV
Chroma subsampling : 4:2:0
Bit depth : 8 bits
Scan type : Progressive
Bits/(Pixel*Frame) : 0.073
Stream size : 280 MiB (89%)
Title : Imported with GPAC 0.4.6-DEV-git-5ca3a9a
Writing library : x264 core 132 r2309 3b1f1f7
Encoding settings : cabac=1 / ref=5 / deblock=1:0:0 / analyse=0x3:0x113 / me=umh / subme=10 / psy=1 / psy_rd=1.00:0.20 / mixed_ref=1 / me_range=16 / chroma_me=1 / trellis=2 / 8x8dct=1 / cqm=0 / deadzone=21,11 / fast_pskip=0 / chroma_qp_offset=-3 / threads=12 / lookahead_threads=1 / sliced_threads=0 / nr=0 / decimate=0 / interlaced=0 / bluray_compat=0 / constrained_intra=0 / bframes=3 / b_pyramid=2 / b_adapt=2 / b_bias=0 / direct=3 / weightb=1 / open_gop=0 / weightp=2 / keyint=250 / keyint_min=4 / scenecut=40 / intra_refresh=0 / rc=crf / mbtree=0 / crf=21.0 / qcomp=0.75 / qpmin=0 / qpmax=69 / qpstep=12 / ip_ratio=1.50 / pb_ratio=1.30 / aq=1:0.60
Encoded date : UTC 2013-04-28 11:34:52
Tagged date : UTC 2013-04-28 11:34:53
Matrix coefficients : BT.709-5, BT.1361, IEC 61966-2-4 709, SMPTE RP177

Audio
ID : 2
Format : AAC
Format/Info : Advanced Audio Codec
Format profile : LC
Codec ID : 40
Duration : 29mn 0s
Bit rate mode : Variable
Bit rate : 160 Kbps
Maximum bit rate : 189 Kbps
Channel(s) : 2 channels
Channel positions : Front: L R
Sampling rate : 48.0 KHz
Compression mode : Lossy
Stream size : 33.2 MiB (11%)
Encoded date : UTC 2013-04-28 11:34:53
Tagged date : UTC 2013-04-28 11:34:53


Трекер:  [ 05-Июн-2013 20:37 ]

  

Скачать .torrent

Размер .torrent файла 13 KB


Размер: 314 MB
Хэш (hash) релиза: 14579135ce214f8c27cb5cb22a1e95c55f5eafdf

Торренты, похожие на SM no Susume Запретные основы скачать торрент

Форум Название Автор Размер S L Добавлен
Хентай | С цензурой ·· SM no Susume / Запретные основы (Museum Pictures, Milky Animation Label) (ep. 1) [cen] [2001 г., Masturbation, Oral sex, BDSM, DVD5] [jap] LinGr 26583413172.48 GB 0 0 1377291453

23:57

23-Авг-13

Еще никто не оставлял запись к записи скачать торрент SM no Susume Запретные основы . Будь первым!

!Обратная связь