Скачать порно через торрент Beauty Russian Amateur Teen Brunette Hard Homemade Anal Fuck UnionPeer.org бесплатно онлайн HD качество

Скачать новое порно 2015, 2014 новинки через торрент UnionPeer.org

Порно торрент бесплатно ЮнионПир.орг

Если у вас наблюдаются проблемы со скриншотами, переходом по ссылками, скачиванием торрентов - проблемы в блокировщике рекламы AdBlock. #хорошегоДня!


Статистика раздачи
Размер:  542 MB   |    Зарегистрирован:  4 года 4 месяца   |    .torrent скачан:  2828 раз   |   
Раздают:  3  
   
Загрузка...
 
Автор Сообщение

Galfimbul

avatar Galfimbul


Beauty Russian Amateur Teen Brunette Hard Homemade Anal Fuck

Жанр: Teens,Threesome,Anal
Продолжительность: 34mn 52s

Доп. информация:
Format : AVI
Format/Info : Audio Video Interleave
File size : 542 MiB
Duration : 34mn 52s
Overall bit rate : 2 173 Kbps
Writing application : Lavf52.39.1

Video
ID : 0
Format : xvid
Codec ID : xvid
Duration : 34mn 52s
Bit rate : 2 099 Kbps
Width : 640 pixels
Height : 480 pixels
Display aspect ratio : 4:3
Frame rate : 25.000 fps
Bits/(Pixel*Frame) : 0.273
Stream size : 524 MiB (97%)

Audio
ID : 1
Format : MPEG Audio
Format version : Version 2
Format profile : Layer 3
Codec ID : 55
Codec ID/Hint : MP3
Duration : 34mn 52s
Bit rate mode : Constant
Bit rate : 64.0 Kbps
Channel(s) : 1 channel
Sampling rate : 16.0 KHz
Compression mode : Lossy
Stream size : 16.0 MiB (3%)
Alignment : Aligned on interleaves
Interleave, duration : 36 ms (0.90 video frame)


Трекер:  [ 05-Июн-2013 20:35 ]

  

Скачать .torrent

Размер .torrent файла 11 KB


Размер: 542 MB
Хэш (hash) релиза: 9cfd981240f4322e9deb9d0652e28c02e3c6bfce

Еще никто не оставлял запись к записи скачать торрент Beauty Russian Amateur Teen Brunette Hard Homemade Anal Fuck . Будь первым!

!Обратная связь