Скачать через торрент музыку Одинокий волк Маккуэйд Lone Wolf McQuade бесплатно без регистрации torrent

Если у вас наблюдаются проблемы со скриншотами, переходом по ссылками, скачиванием торрентов - проблемы в блокировщике рекламы AdBlock. #хорошегоДня!


Статистика раздачи
Размер:  326 MB   |    Зарегистрирован:  4 года 3 месяца   |    .torrent скачан:  31 раз   |   
Раздают:  1  
   
Загрузка...
 
Автор Сообщение

Galfimbul

avatar Galfimbul


Одинокий волк Маккуэйд | Lone Wolf McQuade

Жанр: Score
Композитор: Francesco De Masi
Год выпуска диска: 1995
Год выпуска фильма: 1983
Страна-производитель диска: Germany
Издатель (лейбл): Colosseum
Номер по каталогу: VSD (CVS) 5573
Аудиокодек: FLAC (*.flac)
Тип рипа: tracks+.cue
Битрейт аудио: lossless
Продолжительность: 00:57:49
Источник: собственный рип
Наличие сканов в содержимом раздачи: да
Треклист:
1. Main Title (02:44)
2. Observation Of Jefe (04:34)
3. Jefe Loses Teeth (03:27)
4. Cuban Connetion (01:48)
5. Nice Wolf (00:29)
6. Guns And Super Chargers (02:35)
7. Lola''s Theme (02:50)
8. Party Brawl (00:45)
9. Highway Hijack (02:23)
10. Sally Bedside (00:34)
11. Snow''s Place (00:50)
12. A Meeting With Snow (03:04)
13. Lola And McQuade (01:31)
14. The Deadly Hand (01:03)
15. lt''s Ok, Kid (01:29)
16. Lola Comforts McQuade (04:29)
17. l''m Going To Miss You, Honey (00:38)
18. Rawley''s Arsenal (03:06)
19. McQuade''S Short Burial (05:29)
20. Mountain Climbing (01:16)
21. Quiet Arrival At Fort (01:07)
22. The Big Fight (03:32)
23. The Final Conflict (04:39)
24. Lone Wolf End Credits (03:27)
Exact Audio Copy V1.0 beta 3 from 29. August 2011

EAC extraction logfile from 2. June 2013, 15:55

Francesco De Masi / Lone Wolf McQuade

Used drive : PLEXTOR DVDR PX-L890SA Adapter: 1 ID: 0

Read mode : SecureUtilize accurate stream : YesDefeat audio cache : YesMake use of C2 pointers : No

Read offset correction : 6Overread into Lead-In and Lead-Out : NoFill up missing offset samples with silence : YesDelete leading and trailing silent blocks : NoNull samples used in CRC calculations : YesUsed interface : Installed external ASPI interfaceGap handling : Appended to previous track

Used output format : User Defined EncoderSelected bitrate : 1024 kBit/sQuality : HighAdd ID3 tag : NoCommand line compressor : C:\Program Files\Exact Audio Copy\Flac\flac.exeAdditional command line options : -V -8 -T "Genre=%genre%" -T "Artist=%artist%" -T "Title=%title%" -T "Album=%albumtitle%" -T "Date=%year%" -T "Tracknumber=%tracknr%" -T "Comment=%comment%" %source%

TOC of the extracted CD

Track | Start | Length | Start sector | End sector --------------------------------------------------------- 1 | 0:00.00 | 2:44.35 | 0 | 12334 2 | 2:44.35 | 4:34.70 | 12335 | 32954 3 | 7:19.30 | 3:27.12 | 32955 | 48491 4 | 10:46.42 | 1:48.73 | 48492 | 56664 5 | 12:35.40 | 0:29.00 | 56665 | 58839 6 | 13:04.40 | 2:35.57 | 58840 | 70521 7 | 15:40.22 | 2:50.18 | 70522 | 83289 8 | 18:30.40 | 0:45.60 | 83290 | 86724 9 | 19:16.25 | 2:23.05 | 86725 | 97454 10 | 21:39.30 | 0:34.65 | 97455 | 100069 11 | 22:14.20 | 0:51.00 | 100070 | 103894 12 | 23:05.20 | 3:04.55 | 103895 | 117749 13 | 26:10.00 | 1:31.22 | 117750 | 124596 14 | 27:41.22 | 1:03.55 | 124597 | 129376 15 | 28:45.02 | 1:29.00 | 129377 | 136051 16 | 30:14.02 | 4:29.05 | 136052 | 156231 17 | 34:43.07 | 0:38.48 | 156232 | 159129 18 | 35:21.55 | 3:06.70 | 159130 | 173149 19 | 38:28.50 | 5:29.42 | 173150 | 197866 20 | 43:58.17 | 1:16.65 | 197867 | 203631 21 | 45:15.07 | 1:07.10 | 203632 | 208666 22 | 46:22.17 | 3:32.08 | 208667 | 224574 23 | 49:54.25 | 4:39.05 | 224575 | 245504 24 | 54:33.30 | 3:27.15 | 245505 | 261044

Track 1

Filename F:\torrent\Lone Wolf McQuade_Francesco De Masi\score\01 Main Titles.wav

Pre-gap length 0:00:02.00

Peak level 74.0 % Extraction speed 4.5 X Track quality 100.0 % Test CRC B928374D Copy CRC B928374D Cannot be verified as accurate (confidence 2) [47E3E06B], AccurateRip returned [63F56DED] (AR v2) Copy OK

Track 2

Filename F:\torrent\Lone Wolf McQuade_Francesco De Masi\score\02 Observation Of Life.wav

Pre-gap length 0:00:02.18

Peak level 94.7 % Extraction speed 5.4 X Track quality 100.0 % Test CRC 15443090 Copy CRC 15443090 Cannot be verified as accurate (confidence 2) [C80E965E], AccurateRip returned [5518A750] (AR v2) Copy OK

Track 3

Filename F:\torrent\Lone Wolf McQuade_Francesco De Masi\score\03 Jefe Loses Teeth.wav

Pre-gap length 0:00:02.00

Peak level 71.7 % Extraction speed 4.9 X Track quality 99.9 % Test CRC E7423A94 Copy CRC E7423A94 Cannot be verified as accurate (confidence 2) [A007CE9C], AccurateRip returned [40A47376] (AR v2) Copy OK

Track 4

Filename F:\torrent\Lone Wolf McQuade_Francesco De Masi\score\04 Cuban Connetion.wav

Pre-gap length 0:00:01.19

Peak level 70.8 % Extraction speed 5.2 X Track quality 100.0 % Test CRC 04380134 Copy CRC 04380134 Cannot be verified as accurate (confidence 2) [231368DE], AccurateRip returned [3AB085B5] (AR v2) Copy OK

Track 5

Filename F:\torrent\Lone Wolf McQuade_Francesco De Masi\score\05 Nice Wolf.wav

Pre-gap length 0:00:02.20

Peak level 40.7 % Extraction speed 3.0 X Track quality 100.0 % Test CRC E12CC002 Copy CRC E12CC002 Cannot be verified as accurate (confidence 2) [144D4E9B], AccurateRip returned [49CBB9A8] (AR v2) Copy OK

Track 6

Filename F:\torrent\Lone Wolf McQuade_Francesco De Masi\score\06 Guns And Super Chargers.wav

Pre-gap length 0:00:02.43

Peak level 68.3 % Extraction speed 5.9 X Track quality 100.0 % Test CRC 1633A0B9 Copy CRC 1633A0B9 Cannot be verified as accurate (confidence 2) [FB3F3DA6], AccurateRip returned [035929A0] (AR v2) Copy OK

Track 7

Filename F:\torrent\Lone Wolf McQuade_Francesco De Masi\score\07 Lola''s Theme.wav

Pre-gap length 0:00:02.69

Peak level 49.2 % Extraction speed 6.2 X Track quality 100.0 % Test CRC 658FC768 Copy CRC 658FC768 Cannot be verified as accurate (confidence 2) [D0C0A9D1], AccurateRip returned [CB668839] (AR v2) Copy OK

Track 8

Filename F:\torrent\Lone Wolf McQuade_Francesco De Masi\score\08 Party Brawl.wav

Pre-gap length 0:00:02.64

Peak level 78.9 % Extraction speed 2.9 X Track quality 99.7 % Test CRC 5BF4FF28 Copy CRC 5BF4FF28 Cannot be verified as accurate (confidence 2) [A1E281EE], AccurateRip returned [39861DE6] (AR v2) Copy OK

Track 9

Filename F:\torrent\Lone Wolf McQuade_Francesco De Masi\score\09 Highwy Hijack.wav

Pre-gap length 0:00:02.39

Peak level 79.0 % Extraction speed 5.3 X Track quality 99.9 % Test CRC 12AD02AF Copy CRC 12AD02AF Cannot be verified as accurate (confidence 2) [12381280], AccurateRip returned [35A33B77] (AR v2) Copy OK

Track 10

Filename F:\torrent\Lone Wolf McQuade_Francesco De Masi\score\10 Sally Bedside.wav

Pre-gap length 0:00:02.50

Peak level 48.5 % Extraction speed 2.5 X Track quality 99.6 % Test CRC 3CCD55A8 Copy CRC 3CCD55A8 Cannot be verified as accurate (confidence 2) [DED616B0], AccurateRip returned [28AD0ADD] (AR v2) Copy OK

Track 11

Filename F:\torrent\Lone Wolf McQuade_Francesco De Masi\score\11 Snow''s Place.wav

Pre-gap length 0:00:02.47

Peak level 76.6 % Extraction speed 4.7 X Track quality 100.0 % Test CRC 2DB3DEB1 Copy CRC 2DB3DEB1 Cannot be verified as accurate (confidence 2) [A2CE642E], AccurateRip returned [18C15307] (AR v2) Copy OK

Track 12

Filename F:\torrent\Lone Wolf McQuade_Francesco De Masi\score\12 A Meeting With Snow.wav

Pre-gap length 0:00:02.16

Peak level 93.0 % Extraction speed 7.0 X Track quality 100.0 % Test CRC 8FF62957 Copy CRC 8FF62957 Cannot be verified as accurate (confidence 2) [28EE5F25], AccurateRip returned [611F38E5] (AR v2) Copy OK

Track 13

Filename F:\torrent\Lone Wolf McQuade_Francesco De Masi\score\13 Lola And McQuade.wav

Pre-gap length 0:00:01.58

Peak level 44.3 % Extraction speed 4.8 X Track quality 99.8 % Test CRC B9DDDAD0 Copy CRC B9DDDAD0 Cannot be verified as accurate (confidence 2) [B434925F], AccurateRip returned [B7DBD897] (AR v2) Copy OK

Track 14

Filename F:\torrent\Lone Wolf McQuade_Francesco De Masi\score\14 The Deadly Hand.wav

Pre-gap length 0:00:02.40

Peak level 90.0 % Extraction speed 4.0 X Track quality 99.8 % Test CRC 432C9885 Copy CRC 432C9885 Cannot be verified as accurate (confidence 2) [83EA6BDF], AccurateRip returned [4728F9EC] (AR v2) Copy OK

Track 15

Filename F:\torrent\Lone Wolf McQuade_Francesco De Masi\score\15 It''s OK , Kid.wav

Pre-gap length 0:00:02.44

Peak level 41.6 % Extraction speed 6.2 X Track quality 100.0 % Test CRC 60E6A3F7 Copy CRC 60E6A3F7 Cannot be verified as accurate (confidence 2) [0A3210B0], AccurateRip returned [C7F6C331] (AR v2) Copy OK

Track 16

Filename F:\torrent\Lone Wolf McQuade_Francesco De Masi\score\16 Lola Comforts McQuade.wav

Pre-gap length 0:00:01.58

Peak level 99.6 % Extraction speed 7.9 X Track quality 100.0 % Test CRC 62BDA5B5 Copy CRC 62BDA5B5 Cannot be verified as accurate (confidence 2) [BA3C369C], AccurateRip returned [56DD472E] (AR v2) Copy OK

Track 17

Filename F:\torrent\Lone Wolf McQuade_Francesco De Masi\score\17 I''m Going To Miss You , Honey.wav

Pre-gap length 0:00:01.41

Peak level 23.4 % Extraction speed 4.8 X Track quality 100.0 % Test CRC A23D11F8 Copy CRC A23D11F8 Cannot be verified as accurate (confidence 2) [A1439E39], AccurateRip returned [A58F3FBC] (AR v2) Copy OK

Track 18

Filename F:\torrent\Lone Wolf McQuade_Francesco De Masi\score\18 Rawley''s Arsenal.wav

Pre-gap length 0:00:02.45

Peak level 89.1 % Extraction speed 7.9 X Track quality 100.0 % Test CRC D4519381 Copy CRC D4519381 Cannot be verified as accurate (confidence 2) [42F9C619], AccurateRip returned [A4059A8E] (AR v2) Copy OK

Track 19

Filename F:\torrent\Lone Wolf McQuade_Francesco De Masi\score\19 McQuade''s Short Burial.wav

Pre-gap length 0:00:01.62

Peak level 83.1 % Extraction speed 8.9 X Track quality 100.0 % Test CRC A7E17515 Copy CRC A7E17515 Cannot be verified as accurate (confidence 2) [99B1D5AD], AccurateRip returned [1E32C288] (AR v2) Copy OK

Track 20

Filename F:\torrent\Lone Wolf McQuade_Francesco De Masi\score\20 Mountain Climbing.wav

Pre-gap length 0:00:01.47

Peak level 38.5 % Extraction speed 6.7 X Track quality 100.0 % Test CRC 04117AA2 Copy CRC 04117AA2 Cannot be verified as accurate (confidence 2) [585BA79A], AccurateRip returned [68A4DF86] (AR v2) Copy OK

Track 21

Filename F:\torrent\Lone Wolf McQuade_Francesco De Masi\score\21 Quiet Arrival At Fort.wav

Pre-gap length 0:00:01.38

Peak level 33.5 % Extraction speed 6.3 X Track quality 100.0 % Test CRC 86403B9F Copy CRC 86403B9F Cannot be verified as accurate (confidence 2) [D5C6B520], AccurateRip returned [499F8A70] (AR v2) Copy OK

Track 22

Filename F:\torrent\Lone Wolf McQuade_Francesco De Masi\score\22 The Big Conflict.wav

Pre-gap length 0:00:01.49

Peak level 77.5 % Extraction speed 8.9 X Track quality 100.0 % Test CRC 2EF9592B Copy CRC 2EF9592B Cannot be verified as accurate (confidence 2) [667A991B], AccurateRip returned [1BC12AB5] (AR v2) Copy OK

Track 23

Filename F:\torrent\Lone Wolf McQuade_Francesco De Masi\score\23 The Final Conflict.wav

Pre-gap length 0:00:01.69

Peak level 93.6 % Extraction speed 9.5 X Track quality 100.0 % Test CRC 38924BEE Copy CRC 38924BEE Cannot be verified as accurate (confidence 2) [EF379F59], AccurateRip returned [3938EC2E] (AR v2) Copy OK

Track 24

Filename F:\torrent\Lone Wolf McQuade_Francesco De Masi\score\24 Lone Wolf End Credits.wav

Pre-gap length 0:00:01.34

Peak level 64.0 % Extraction speed 9.2 X Track quality 100.0 % Test CRC D8FF77D0 Copy CRC D8FF77D0 Cannot be verified as accurate (confidence 2) [3F9A3B53], AccurateRip returned [2FDE4CA6] (AR v2) Copy OK

No tracks could be verified as accurateYou may have a different pressing from the one(s) in the database

No errors occurred

End of status report

==== Log checksum 1E0E1F21D91C290E928BD5CA8AAF47B7356BEFD5652DAF1C53D9BF1245698689 ====
REM GENRE SoundtrackREM DATE 1995REM DISCID 550D9818REM COMMENT "ExactAudioCopy v1.0b3"CATALOG 0000000000000PERFORMER "Francesco De Masi"TITLE "Lone Wolf McQuade"FILE "01 Main Titles.wav" WAVE TRACK 01 AUDIO TITLE "Main Titles" PERFORMER "Francesco De Masi" INDEX 01 00:00:00 TRACK 02 AUDIO TITLE "Observation Of Life" PERFORMER "Francesco De Masi" INDEX 00 02:42:17FILE "02 Observation Of Life.wav" WAVE INDEX 01 00:00:00 TRACK 03 AUDIO TITLE "Jefe Loses Teeth" PERFORMER "Francesco De Masi" INDEX 00 04:32:70FILE "03 Jefe Loses Teeth.wav" WAVE INDEX 01 00:00:00 TRACK 04 AUDIO TITLE "Cuban Connetion" PERFORMER "Francesco De Masi" INDEX 00 03:25:68FILE "04 Cuban Connetion.wav" WAVE INDEX 01 00:00:00 TRACK 05 AUDIO TITLE "Nice Wolf" PERFORMER "Francesco De Masi" INDEX 00 01:46:53FILE "05 Nice Wolf.wav" WAVE INDEX 01 00:00:00 TRACK 06 AUDIO TITLE "Guns And Super Chargers" PERFORMER "Francesco De Masi" INDEX 00 00:26:32FILE "06 Guns And Super Chargers.wav" WAVE INDEX 01 00:00:00 TRACK 07 AUDIO TITLE "Lola''s Theme" PERFORMER "Francesco De Masi" INDEX 00 02:32:63FILE "07 Lola''s Theme.wav" WAVE INDEX 01 00:00:00 TRACK 08 AUDIO TITLE "Party Brawl" PERFORMER "Francesco De Masi" INDEX 00 02:47:29FILE "08 Party Brawl.wav" WAVE INDEX 01 00:00:00 TRACK 09 AUDIO TITLE "Highwy Hijack" PERFORMER "Francesco De Masi" INDEX 00 00:43:21FILE "09 Highwy Hijack.wav" WAVE INDEX 01 00:00:00 TRACK 10 AUDIO TITLE "Sally Bedside" PERFORMER "Francesco De Masi" INDEX 00 02:20:30FILE "10 Sally Bedside.wav" WAVE INDEX 01 00:00:00 TRACK 11 AUDIO TITLE "Snow''s Place" PERFORMER "Francesco De Masi" INDEX 00 00:32:18FILE "11 Snow''s Place.wav" WAVE INDEX 01 00:00:00 TRACK 12 AUDIO TITLE "A Meeting With Snow" PERFORMER "Francesco De Masi" INDEX 00 00:48:59FILE "12 A Meeting With Snow.wav" WAVE INDEX 01 00:00:00 TRACK 13 AUDIO TITLE "Lola And McQuade" PERFORMER "Francesco De Masi" INDEX 00 03:02:72FILE "13 Lola And McQuade.wav" WAVE INDEX 01 00:00:00 TRACK 14 AUDIO TITLE "The Deadly Hand" PERFORMER "Francesco De Masi" INDEX 00 01:28:57FILE "14 The Deadly Hand.wav" WAVE INDEX 01 00:00:00 TRACK 15 AUDIO TITLE "It''s OK , Kid" PERFORMER "Francesco De Masi" INDEX 00 01:01:11FILE "15 It''s OK , Kid.wav" WAVE INDEX 01 00:00:00 TRACK 16 AUDIO TITLE "Lola Comforts McQuade" PERFORMER "Francesco De Masi" INDEX 00 01:27:17FILE "16 Lola Comforts McQuade.wav" WAVE INDEX 01 00:00:00 TRACK 17 AUDIO TITLE "I''m Going To Miss You , Honey" PERFORMER "Francesco De Masi" INDEX 00 04:27:39FILE "17 I''m Going To Miss You , Honey.wav" WAVE INDEX 01 00:00:00 TRACK 18 AUDIO TITLE "Rawley''s Arsenal" PERFORMER "Francesco De Masi" INDEX 00 00:36:03FILE "18 Rawley''s Arsenal.wav" WAVE INDEX 01 00:00:00 TRACK 19 AUDIO TITLE "McQuade''s Short Burial" PERFORMER "Francesco De Masi" INDEX 00 03:05:08FILE "19 McQuade''s Short Burial.wav" WAVE INDEX 01 00:00:00 TRACK 20 AUDIO TITLE "Mountain Climbing" PERFORMER "Francesco De Masi" INDEX 00 05:27:70FILE "20 Mountain Climbing.wav" WAVE INDEX 01 00:00:00 TRACK 21 AUDIO TITLE "Quiet Arrival At Fort" PERFORMER "Francesco De Masi" INDEX 00 01:15:27FILE "21 Quiet Arrival At Fort.wav" WAVE INDEX 01 00:00:00 TRACK 22 AUDIO TITLE "The Big Conflict" PERFORMER "Francesco De Masi" INDEX 00 01:05:36FILE "22 The Big Conflict.wav" WAVE INDEX 01 00:00:00 TRACK 23 AUDIO TITLE "The Final Conflict" PERFORMER "Francesco De Masi" INDEX 00 03:30:14FILE "23 The Final Conflict.wav" WAVE INDEX 01 00:00:00 TRACK 24 AUDIO TITLE "Lone Wolf End Credits" PERFORMER "Francesco De Masi" INDEX 00 04:37:46FILE "24 Lone Wolf End Credits.wav" WAVE INDEX 01 00:00:00
AUDIOCHECKER v2.0 beta (build 457) - by Dester - opdester@freemail.hu~~~~~~~~~~~~~~~~~~~~~~~~~~~~~~~~~~-=== НЕ РЕДАКТИРУЙТЕ ЭТОТ ФАЙЛ! ===-

Путь: ...\score

01 -=- 01 Main Titles.flac -=- CDDA (100%)02 -=- 02 Observation Of Life.flac -=- CDDA (100%)03 -=- 03 Jefe Loses Teeth.flac -=- CDDA (100%)04 -=- 04 Cuban Connetion.flac -=- CDDA (100%)05 -=- 05 Nice Wolf.flac -=- CDDA (100%)06 -=- 06 Guns And Super Chargers.flac -=- CDDA (100%)07 -=- 07 Lola''s Theme.flac -=- CDDA (100%)08 -=- 08 Party Brawl.flac -=- CDDA (100%)09 -=- 09 Highwy Hijack.flac -=- CDDA (100%)10 -=- 10 Sally Bedside.flac -=- CDDA (100%)11 -=- 11 Snow''s Place.flac -=- CDDA (100%)12 -=- 12 A Meeting With Snow.flac -=- CDDA (100%)13 -=- 13 Lola And McQuade.flac -=- CDDA (100%)14 -=- 14 The Deadly Hand.flac -=- CDDA (99%)15 -=- 15 It''s OK , Kid.flac -=- CDDA (100%)16 -=- 16 Lola Comforts McQuade.flac -=- CDDA (100%)17 -=- 17 I''m Going To Miss You , Honey.flac -=- CDDA (100%)18 -=- 18 Rawley''s Arsenal.flac -=- CDDA (100%)19 -=- 19 McQuade''s Short Burial.flac -=- CDDA (100%)20 -=- 20 Mountain Climbing.flac -=- CDDA (100%)21 -=- 21 Quiet Arrival At Fort.flac -=- CDDA (100%)22 -=- 22 The Big Conflict.flac -=- CDDA (100%)23 -=- 23 The Final Conflict.flac -=- CDDA (100%)24 -=- 24 Lone Wolf End Credits.flac -=- CDDA (100%)

Сводка 99,96% CDDA

124655572


Трекер:  [ 12-Июн-2013 16:30 ]

  

Скачать .torrent

Размер .torrent файла 15 KB


Размер: 326 MB
Хэш (hash) релиза: e2bdfe298dbc645b916a82012423585f509a09d5

bot

Топик был перенесен в форум Саундтреки к фильмам и мультфильмам (lossless)

Перенес Galfimbul

Хотите добавить комментарий к записи скачать торрент Одинокий волк Маккуэйд Lone Wolf McQuade

!Обратная связь