Скачать порно через торрент Soushisouai Note The Animation Взаимная любовь к сведению UnionPeer.org бесплатно онлайн HD качество

Скачать новое порно 2015, 2014 новинки через торрент UnionPeer.org

Порно торрент бесплатно ЮнионПир.орг

Если у вас наблюдаются проблемы со скриншотами, переходом по ссылками, скачиванием торрентов - проблемы в блокировщике рекламы AdBlock. #хорошегоДня!


Статистика раздачи
Размер:  571 MB   |    Зарегистрирован:  4 года 2 месяца   |    .torrent скачан:  249 раз   |   
Раздают:  1  
   
Загрузка...
 
Автор Сообщение

LinGr

avatar LinGr


Soushisouai Note The Animation / 相思相愛ノート THE ANIMATION / Взаимная любовь к сведению
Год производства: 2013 г.
Жанр: Big tits, Straight, X-Ray, Oral sex
Серии: ep. 1-2
Продолжительность: 28 мин.
Цензура: Есть во всех файлах

Язык: Японский
Озвучка: Оригинальная
Режиссер: Raika Ken
Автор оригинала: Fukudada
Студия: Pink Pineapple

Описание: Yuta swimming club members, had been longing to women's director-Minakawa of Otokomasari Big Tits.
Yuta that had a nap after school One day, in the clubroom, would witness the Minakawa swimming naked in the pool at night.
In fact so well is tight swimsuit is Minakawa, I was enjoying the feeling of opening this way sometimes.
Minakawa is ...... order to keep the secret, had multiplied the "insurance" to Yuta

Эп. 1
Качество видео: DVDRip
Формат видео: mkv
Видео кодек: H.264
Аудио кодек: AAC
Видео: 720x480 (16:9), 23.976 fps, 1070 Kbps
Аудио 1: jap, 48.0 KHz, 192kbit, 2 channels
Субтитры: внешние Английские (.ass)
Субтитры: внешние Русские (.ass)

Эп. 2
Качество видео: DVDRip
Формат видео: mp4
Видео кодек: H.264
Аудио кодек: AAC
Видео: 720x480, (16:9), 24.546 fps, 1410 Kbps
Аудио 1: jap, 48.0 KHz, 192kbit, 2 channels

General
Unique ID : 178942995983341343340270289893843930770 (0x869F2ADCB5C6436092086DBA9B220E92)
Complete name : E:\Хентай\Soushisouai Note The Animation\Soushisouai Note The Animation - 01.mkv
Format : Matroska
Format version : Version 4 / Version 2
File size : 258 MiB
Duration : 28mn 1s
Overall bit rate : 1 288 Kbps
Encoded date : UTC 2013-04-30 16:13:44
Writing application : mkvmerge v6.2.0 ('Promised Land') built on Apr 28 2013 12:22:01
Writing library : libebml v1.3.0 + libmatroska v1.4.0
Attachment : Yes / Yes / Yes / Yes

Video
ID : 1
Format : AVC
Format/Info : Advanced Video Codec
Format profile : High 10@L4.0
Format settings, CABAC : Yes
Format settings, ReFrames : 16 frames
Codec ID : V_MPEG4/ISO/AVC
Duration : 28mn 1s
Bit rate : 1 070 Kbps
Width : 720 pixels
Height : 480 pixels
Display aspect ratio : 16:9
Original display aspect ratio : 3:2
Frame rate : 23.976 fps
Standard : NTSC
Color space : YUV
Chroma subsampling : 4:2:0
Bit depth : 10 bits
Scan type : Progressive
Bits/(Pixel*Frame) : 0.129
Stream size : 215 MiB (83%)
Title : Encoded by Tiasophix
Writing library : x264 core 120 r2148+643+28 a4068c6 tMod [10-bit@4:2:0 X86]
Encoding settings : cabac=1 / ref=16 / deblock=1:-1:-1 / analyse=0x3:0x133 / me=umh / subme=10 / psy=1 / fade_compensate=0.00 / psy_rd=0.75:0.00 / mixed_ref=1 / me_range=24 / chroma_me=1 / trellis=2 / 8x8dct=1 / cqm=0 / deadzone=21,11 / fast_pskip=0 / chroma_qp_offset=-2 / threads=3 / sliced_threads=0 / nr=0 / decimate=0 / interlaced=0 / bluray_compat=0 / constrained_intra=0 / fgo=0 / bframes=8 / b_pyramid=2 / b_adapt=2 / b_bias=0 / direct=3 / weightb=1 / open_gop=0 / weightp=2 / keyint=240 / keyint_min=2 / scenecut=40 / intra_refresh=0 / rc=crf / mbtree=0 / crf=16.0000 / qcomp=0.70 / qpmin=0 / qpmax=46 / qpstep=4 / ip_ratio=1.40 / pb_ratio=1.30 / aq=1:0.80
Default : Yes
Forced : No

Audio
ID : 2
Format : AC-3
Format/Info : Audio Coding 3
Mode extension : CM (complete main)
Codec ID : A_AC3
Duration : 28mn 1s
Bit rate mode : Constant
Bit rate : 192 Kbps
Channel(s) : 2 channels
Channel positions : Front: L R
Sampling rate : 48.0 KHz
Bit depth : 16 bits
Compression mode : Lossy
Stream size : 38.5 MiB (15%)
Title : Japanese
Language : Japanese
Default : Yes
Forced : No

Text
ID : 3
Format : ASS
Codec ID : S_TEXT/ASS
Codec ID/Info : Advanced Sub Station Alpha
Compression mode : Lossless
Title : Translated by SubDESU-H
Language : English
Default : Yes
Forced : No

Menu
00:00:00.000 : ja:プロローグ
00:00:57.391 : ja:くさびる同級生
00:05:25.784 : ja:きっとさゅーしてくれる?
00:07:36.873 : ja:初めのエッチ
00:11:09.878 : ja:キスをしながら…❤
00:14:14.854 : ja:吸汗性マネージャー
00:15:51.701 : ja:先輩の汗、全部私に下さい
00:18:23.102 : ja:人の価値
00:21:15.441 : ja:揺れるあっぱい♪
00:23:37.666 : ja:先輩の匂いフェチ❤
00:26:13.322 : ja:エンディング
General
Complete name : E:\Хентай\Soushisouai Note The Animation\Soushisouai Note The Animation - 02.mp4
Format : MPEG-4
Format profile : Base Media / Version 2
Codec ID : mp42
File size : 313 MiB
Duration : 27mn 17s
Overall bit rate mode : Variable
Overall bit rate : 1 604 Kbps
Encoded date : UTC 2013-06-01 06:43:10
Tagged date : UTC 2013-06-01 06:43:10

Video
ID : 1
Format : AVC
Format/Info : Advanced Video Codec
Format profile : High@L3.2
Format settings, CABAC : Yes
Format settings, ReFrames : 4 frames
Codec ID : avc1
Codec ID/Info : Advanced Video Coding
Duration : 27mn 17s
Bit rate : 1 410 Kbps
Maximum bit rate : 3 162 Kbps
Width : 720 pixels
Height : 480 pixels
Display aspect ratio : 16:9
Original display aspect ratio : 16:9
Frame rate mode : Variable
Frame rate : 24.547 fps
Original frame rate : 29.970 fps
Minimum frame rate : 14.985 fps
Maximum frame rate : 119.880 fps
Standard : NTSC
Color space : YUV
Chroma subsampling : 4:2:0
Bit depth : 8 bits
Scan type : Progressive
Bits/(Pixel*Frame) : 0.166
Stream size : 275 MiB (88%)
Title : nhml@GPAC0.5.1-DEV-rev4280+44M git-0f0e3eb
Writing library : x264 core 130 r2273 b3065e6
Encoding settings : cabac=1 / ref=3 / deblock=1:-2:-2 / analyse=0x3:0x113 / me=umh / subme=7 / psy=1 / psy_rd=1.00:0.00 / mixed_ref=1 / me_range=48 / chroma_me=1 / trellis=2 / 8x8dct=1 / cqm=0 / deadzone=21,11 / fast_pskip=1 / chroma_qp_offset=-2 / threads=12 / lookahead_threads=2 / sliced_threads=0 / nr=0 / decimate=1 / interlaced=0 / bluray_compat=0 / constrained_intra=0 / bframes=3 / b_pyramid=2 / b_adapt=2 / b_bias=0 / direct=3 / weightb=1 / open_gop=0 / weightp=1 / keyint=250 / keyint_min=25 / scenecut=40 / intra_refresh=0 / rc_lookahead=40 / rc=crf / mbtree=1 / crf=17.0 / qcomp=0.60 / qpmin=0 / qpmax=69 / qpstep=4 / ip_ratio=1.40 / aq=1:1.50
Encoded date : UTC 2013-06-01 06:43:10
Tagged date : UTC 2013-06-01 06:43:19

Audio
ID : 2
Format : AAC
Format/Info : Advanced Audio Codec
Format profile : LC
Codec ID : 40
Duration : 27mn 17s
Bit rate mode : Variable
Bit rate : 192 Kbps
Maximum bit rate : 208 Kbps
Channel(s) : 2 channels
Channel positions : Front: L R
Sampling rate : 48.0 KHz
Compression mode : Lossy
Stream size : 37.0 MiB (12%)
Encoded date : UTC 2013-06-01 06:42:13
Tagged date : UTC 2013-06-01 06:43:19


Трекер:  [ 04-Июн-2013 01:09 ]

  

Скачать .torrent

Размер .torrent файла 12 KB


Размер: 571 MB
Хэш (hash) релиза: 88b2a316857aaf66487e4e09f3c51bdc739263f6

bot

Топик был перенесен в форум Хентай | С цензурой

Перенес Mahmud_1

Хотите добавить комментарий к записи скачать торрент Soushisouai Note The Animation Взаимная любовь к сведению

!Обратная связь