Скачать через торрент музыку Rockin The Blues - 1996 бесплатно без регистрации torrent

Если у вас наблюдаются проблемы со скриншотами, переходом по ссылками, скачиванием торрентов - проблемы в блокировщике рекламы AdBlock. #хорошегоДня!


Статистика раздачи
Размер:  151 MB   |    Зарегистрирован:  4 года 5 месяцев   |    .torrent скачан:  27 раз   |   
Раздают:  1  
   
Загрузка...
 
Автор Сообщение

Galfimbul

avatar Galfimbul


Rockin'' The Blues

Жанр: Soundtrack
Год выпуска диска: 1955 (1996)
Год выпуска фильма: 1955
Страна-производитель диска: USA
Издатель (лейбл): Relic
Номер по каталогу: 7143
Аудиокодек: APE (*.ape)
Тип рипа: image+.cue
Битрейт аудио: lossless
Продолжительность: 39:05
Источник: собственный рип
сайт-источник/ник/другое: AUDELAS KINGDOM
01. Connie Carroll / Rock & Roll Is The Latest Fad
02. Harptones / High Flyin'' Baby
03. Pearl Woods & Wanderers / I Can''t Wait
04. Hurricanes / You May Not Know
05. Reese La Rue / Don''t Be That Way
06. Linda Hopkins / Baby Please Come Home Fast
07. Wanderers / My First, Last And Only Girl
08. Miller Sisters / Everybody''s Havin'' A Ball
09. Harptones / Ou Wee Baby
10. Connie Carroll / Fast Movin'' Mama
11. Pearl Woods / He''s So Lazy
12. Hurricanes / I''ll Be Glad
13. Connie Carroll / T V Is The Thing
14. Wanderers / My Sweetie Pie
15. Linda Hopkins / They Raided The Joint
16. Harptones / Mambo Boogie
Exact Audio Copy V1.0 beta 3 from 29. August 2011

EAC extraction logfile from 29. May 2013, 20:13

OST / Rockin'' The Blues

Used drive : ATAPI iHAS124 B Adapter: 1 ID: 1

Read mode : SecureUtilize accurate stream : YesDefeat audio cache : YesMake use of C2 pointers : No

Read offset correction : 6Overread into Lead-In and Lead-Out : NoFill up missing offset samples with silence : YesDelete leading and trailing silent blocks : NoNull samples used in CRC calculations : YesUsed interface : Native Win32 interface for Win NT & 2000

Used output format : Monkey''s Audio Lossless EncoderSelected bitrate : Extra High Lossless CompressionQuality : HighAdd ID3 tag : NoCommand line compressor : C:\Program Files\Monkey''s Audio\MAC.exe

TOC of the extracted CD

Track | Start | Length | Start sector | End sector --------------------------------------------------------- 1 | 0:00.00 | 2:47.22 | 0 | 12546 2 | 2:47.22 | 2:46.25 | 12547 | 25021 3 | 5:33.47 | 2:07.38 | 25022 | 34584 4 | 7:41.10 | 2:20.15 | 34585 | 45099 5 | 10:01.25 | 2:40.62 | 45100 | 57161 6 | 12:42.12 | 1:25.45 | 57162 | 63581 7 | 14:07.57 | 2:39.05 | 63582 | 75511 8 | 16:46.62 | 1:30.13 | 75512 | 82274 9 | 18:17.00 | 2:50.00 | 82275 | 95024 10 | 21:07.00 | 2:25.40 | 95025 | 105939 11 | 23:32.40 | 2:28.15 | 105940 | 117054 12 | 26:00.55 | 2:40.40 | 117055 | 129094 13 | 28:41.20 | 2:30.22 | 129095 | 140366 14 | 31:11.42 | 1:58.60 | 140367 | 149276 15 | 33:10.27 | 2:22.53 | 149277 | 159979 16 | 35:33.05 | 3:11.47 | 159980 | 174351

Range status and errors

Selected range

Filename C:\1\OST - Rockin'' The Blues (1955)\OST - Rockin'' The Blues.wav

Peak level 98.8 % Extraction speed 2.8 X Range quality 100.0 % Test CRC 3DE50271 Copy CRC 3DE50271 Copy OK

No errors occurred

End of status report

==== Log checksum 619F69F2674B0A8CEB808847CEB317214EECBA3A4E2ED45FC09D4763F6812B1E ====


Трекер:  [ 12-Июн-2013 16:30 ]

  

Скачать .torrent

Размер .torrent файла 12 KB


Размер: 151 MB
Хэш (hash) релиза: cc233e0f1a10c760e535c373ecef74387e778f14

bot

Топик был перенесен в форум Саундтреки к фильмам и мультфильмам (lossless)

Перенес Galfimbul

Хотите добавить комментарий к записи скачать торрент Rockin The Blues - 1996

!Обратная связь